<?xml version="1.0" standalone="no"?>
<!DOCTYPE svg PUBLIC "-//W3C//DTD SVG 1.1//EN" "http://www.w3.org/Graphics/SVG/1.1/DTD/svg11.dtd" >
<svg>
<metadata>
Created by FontForge 20090622 at Wed Dec 19 10:29:29 2018
 By deploy user
Copyright (c) 2009 by &#194;&#169; 2009 Designed by Svetoslav Simov &#194;&#169; Fontfabric, Inc. All rights reserved.
</metadata>
<defs>
<font id="Uni-Sans-Regular" horiz-adv-x="240" >
  <font-face 
    font-family="Uni Sans Regular"
    font-weight="400"
    font-stretch="normal"
    units-per-em="1000"
    panose-1="2 11 4 2 2 2 3 2 2 4"
    ascent="756"
    descent="-244"
    x-height="518"
    cap-height="708"
    bbox="-174 -216 1077 932"
    underline-thickness="50"
    underline-position="-100"
    unicode-range="U+0020-U+FB02"
  />
<missing-glyph horiz-adv-x="500" 
d="M-9 0v700h508v-700h-508zM245 419l139 206h-277l62 -92zM290 350l134 -199v398l-61.5 -91zM107 75h277l-65.5 96l-73.5 110l-62 -92zM66 549v-399l134 200l-66 98z" />
    <glyph glyph-name="fi" unicode="fi" horiz-adv-x="494" 
d="M243 713v-78q-54 0 -83.5 -25t-29.5 -70v-96h106v-80h-106v-364h-80v540q0 83 54 127.5t139 45.5zM315 649q0 24 16.5 40t39.5 16q24 0 40 -16t16 -40q0 -23 -16 -39.5t-40 -16.5q-23 0 -39.5 16.5t-16.5 39.5zM333 521h80v-521h-80v521z" />
    <glyph glyph-name="fl" unicode="fl" horiz-adv-x="522" 
d="M244 713v-78q-54 0 -83.5 -25t-29.5 -70v-96h106v-80h-106v-364h-80v540q0 83 54 127.5t139 45.5zM504 76v-80q-84 0 -130 44.5t-46 124.5v534h80v-534q0 -89 96 -89z" />
    <glyph glyph-name=".notdef" horiz-adv-x="500" 
d="M-9 0v700h508v-700h-508zM245 419l139 206h-277l62 -92zM290 350l134 -199v398l-61.5 -91zM107 75h277l-65.5 96l-73.5 110l-62 -92zM66 549v-399l134 200l-66 98z" />
    <glyph glyph-name=".null" horiz-adv-x="0" 
 />
    <glyph glyph-name="nonmarkingreturn" horiz-adv-x="333" 
 />
    <glyph glyph-name="space" unicode=" " horiz-adv-x="260" 
 />
    <glyph glyph-name="exclam" unicode="!" horiz-adv-x="293" 
d="M182 698v-522h-82v522h82zM82 53q0 25 17 42t42 17t42 -17t17 -42t-17 -42t-42 -17t-42 17t-17 42z" />
    <glyph glyph-name="quotedbl" unicode="&#x22;" horiz-adv-x="348" 
d="M57 455v243h85l-18 -243h-67zM188 455v243h85l-19 -243h-66z" />
    <glyph glyph-name="numbersign" unicode="#" horiz-adv-x="715" 
d="M518 415l-36 -125h170l-18 -79h-177l-30.5 -103t-31.5 -109h-86l62 212h-126q-10 -38 -31.5 -110.5t-29.5 -101.5h-87l62 212h-148l17 79h155q5 18 18 58t20 67h-171l17 80h178l59 202h87l-60 -202h125l60 202h87l-61 -202h151l-22 -80h-153zM432 415h-125l-17.5 -57
t-19.5 -68h124q32 103 38 125z" />
    <glyph glyph-name="dollar" unicode="$" horiz-adv-x="569" 
d="M110 521q-4 -48 28 -71t97 -38v216q-52 -7 -87 -35t-38 -72zM308 629v-232q51 -10 84.5 -22t69 -35.5t51.5 -63.5t13 -97q-5 -82 -67 -132t-151 -57v-98h-73v98q-74 8 -134.5 46t-87.5 103l76 34q18 -42 57 -67.5t89 -32.5v256q-50 11 -81 22t-64.5 32t-49 57t-12.5 86
v-1q3 81 61 128.5t146 57.5v97h73v-97q73 -7 133.5 -45t87.5 -101l-75 -34q-19 42 -58 67.5t-88 30.5zM308 313v-240q54 7 92 36t44 74q1 55 -34.5 84.5t-101.5 45.5z" />
    <glyph glyph-name="percent" unicode="%" horiz-adv-x="768" 
d="M329 511q0 -89 -43 -141.5t-111 -52.5q-73 0 -113 50.5t-40 145.5q0 87 42.5 139.5t110.5 52.5q72 0 113 -51t41 -143zM745 184q0 -89 -42.5 -141t-110.5 -52q-74 0 -113.5 50t-39.5 145q0 88 42.5 140t110.5 52q72 0 112.5 -51t40.5 -143zM664 184q0 115 -73 115
q-71 0 -71 -113q0 -60 17.5 -87t54.5 -27q72 0 72 112zM652 700l-488 -771l-66 43l487 771zM247 511q0 114 -73 114q-70 0 -70 -112q0 -60 17.5 -87t53.5 -27q72 0 72 112z" />
    <glyph glyph-name="ampersand" unicode="&#x26;" horiz-adv-x="629" 
d="M315 378l138 -146l26 43t25 43l70 -35l-64 -107l117 -135h-107l-58 64q-43 -54 -91.5 -81.5t-113.5 -27.5q-91 0 -152.5 55.5t-61.5 146.5q0 37 11 66.5t34 53.5t43.5 39t54.5 36q-73 85 -73 152q0 73 53 117t126 44q66 0 114.5 -42.5t48.5 -108.5q0 -64 -36.5 -102.5
t-103.5 -74.5zM409 162l-171 177q-51 -31 -81.5 -63.5t-30.5 -75.5q0 -56 40.5 -91t99.5 -35q77 0 143 88zM289 631q-39 0 -65.5 -24t-26.5 -61q0 -43 64 -116q23 12 39 21.5t34.5 25t28 34t9.5 40.5q0 35 -23.5 57.5t-59.5 22.5z" />
    <glyph glyph-name="quotesingle" unicode="'" horiz-adv-x="203" 
d="M54 455v243h84l-13 -243h-71z" />
    <glyph glyph-name="parenleft" unicode="(" horiz-adv-x="275" 
d="M188 776l68 -45q-62 -80 -95 -186.5t-33 -207.5q0 -191 129 -397l-65 -42q-70 97 -108 212.5t-38 226.5q0 114 37.5 229.5t104.5 209.5z" />
    <glyph glyph-name="parenright" unicode=")" horiz-adv-x="260" 
d="M65 -132l-71 45q63 79 96.5 186t33.5 208q0 213 -128 415l65 43q69 -96 108 -220.5t39 -237.5t-37.5 -228.5t-105.5 -210.5z" />
    <glyph glyph-name="asterisk" unicode="*" horiz-adv-x="419" 
d="M238 698v-139l132 43l21 -70l-131 -41l83 -113l-56 -43l-85 115l-83 -116l-60 43l85 115l-134 43l20 69l137 -44v138h71z" />
    <glyph glyph-name="plus" unicode="+" horiz-adv-x="621" 
d="M48 296v82h219v213h81v-213h210v-82h-210v-215h-81v215h-219z" />
    <glyph glyph-name="comma" unicode="," horiz-adv-x="246" 
d="M25 -131l70 243h94l-82 -243h-82z" />
    <glyph glyph-name="hyphen" unicode="-" horiz-adv-x="333" 
d="M32 257v82h261v-82h-261z" />
    <glyph glyph-name="period" unicode="." horiz-adv-x="232" 
d="M58 53q0 25 17 42t42 17t42 -17t17 -42t-17 -42t-42 -17t-42 17t-17 42z" />
    <glyph glyph-name="slash" unicode="/" horiz-adv-x="370" 
d="M-4 -11l298 747l74 -26l-297 -748z" />
    <glyph glyph-name="zero" unicode="0" horiz-adv-x="601" 
d="M121 198q0 -44 27.5 -74t65 -41t80.5 -11t80.5 11t65 41t27.5 74v306q0 65 -51.5 95.5t-121.5 30.5t-121.5 -30.5t-51.5 -95.5v-306zM294 -10q-64 0 -120.5 21.5t-96 70t-39.5 116.5v306q0 68 39.5 117t96 70t120.5 21t120 -21t95.5 -70t39.5 -117v-306q0 -100 -77 -154
t-178 -54z" />
    <glyph glyph-name="one" unicode="1" horiz-adv-x="325" 
d="M170 699h76v-699h-81v580l-100 -107l-62 50z" />
    <glyph glyph-name="two" unicode="2" horiz-adv-x="551" 
d="M270 628q-59 1 -106 -27t-69 -76l-74 31q31 73 99.5 114t151.5 39q104 -4 169 -62t65 -140q0 -42 -23.5 -90.5t-63.5 -89.5l-257 -244h344v-82h-462l-26 60l341 323q64 61 64 124q0 50 -42 83.5t-111 36.5z" />
    <glyph glyph-name="three" unicode="3" horiz-adv-x="578" 
d="M7 134l75 36q22 -46 72.5 -71t108.5 -25q71 0 121.5 33.5t50.5 95.5q0 70 -40.5 105t-113.5 34h-69v72h69q56 0 89.5 25.5t33.5 78.5q0 54 -40.5 83t-99.5 29q-49 0 -92.5 -22t-65.5 -62l-71 37q30 60 92 93.5t132 33.5q93 0 159.5 -50.5t66.5 -141.5q0 -99 -81 -136
q56 -19 84.5 -68.5t28.5 -111.5q-1 -68 -39 -117.5t-95 -72t-123 -22.5q-80 0 -150 37.5t-103 106.5z" />
    <glyph glyph-name="four" unicode="4" horiz-adv-x="538" 
d="M459 699v-447h56v-76h-56v-174h-82v174h-322l-54 73l372 450h86zM377 252l2 331l-132 -160.5l-140 -170.5h270z" />
    <glyph glyph-name="five" unicode="5" horiz-adv-x="584" 
d="M22 134l75 36q22 -44 70 -68.5t103 -24.5q71 0 123 35t52 99v41q0 63 -48.5 94.5t-121.5 31.5q-89 0 -179 -42l-46 -2v364h442v-82h-360v-181q74 28 143 27q65 -1 120 -21.5t93 -69t39 -118.5v-43q-1 -103 -78 -160.5t-181 -57.5q-78 0 -145.5 37t-100.5 105z" />
    <glyph glyph-name="six" unicode="6" horiz-adv-x="618" 
d="M492 538l-19 6q-19 40 -63.5 60.5t-101.5 20.5q-74 0 -127 -33.5t-53 -94.5v-126q31 41 81 60.5t99 19.5q106 -1 182 -56t76 -153v-41q0 -98 -76 -153.5t-182 -55.5q-68 -1 -126.5 22t-97 71.5t-39.5 115.5v297q0 99 78 154.5t185 54.5q79 0 146 -36t100 -102zM483 241
q0 61 -51.5 94.5t-123.5 33.5q-74 0 -127 -33.5t-53 -94.5v-39q0 -61 53 -94.5t127 -33.5q72 0 123.5 33.5t51.5 94.5v39z" />
    <glyph glyph-name="seven" unicode="7" horiz-adv-x="511" 
d="M380 617h-362v82h445l27 -55l-369 -644h-93z" />
    <glyph glyph-name="eight" unicode="8" horiz-adv-x="583" 
d="M290 71q69 0 121.5 33.5t52.5 99.5q0 138 -174 138h-18q-174 0 -174 -138q0 -66 52.5 -99.5t121.5 -33.5h18zM272 -11q-103 0 -178.5 56.5t-76.5 157.5q0 57 29 104.5t85 72.5q-39 14 -61 53t-22 81q1 91 67 141.5t157 50.5h18q92 0 158 -50.5t66 -141.5q0 -42 -20 -80.5
t-56 -54.5q52 -18 80 -67.5t28 -108.5q-2 -101 -77.5 -157.5t-178.5 -56.5h-18zM272 626q-60 0 -101.5 -29t-41.5 -83q0 -101 143 -101h18q143 0 143 101q0 54 -41.5 83t-101.5 29h-18z" />
    <glyph glyph-name="nine" unicode="9" horiz-adv-x="609" 
d="M40 129l75 38q21 -46 67.5 -70t103.5 -24q74 0 127 33.5t53 94.5v123q-50 -76 -180 -76q-106 1 -182.5 55.5t-76.5 152.5v41q0 99 76.5 154t182.5 55q106 1 183.5 -54.5t78.5 -154.5v-297q0 -99 -78 -154t-184 -55q-79 0 -146 36t-100 102zM110 496v-39q0 -61 51.5 -94.5
t124.5 -33.5q74 0 127 33.5t53 94.5v39q0 62 -52.5 95t-127.5 33q-73 0 -124.5 -33.5t-51.5 -94.5z" />
    <glyph glyph-name="colon" unicode=":" horiz-adv-x="234" 
d="M56 426q0 25 17 42t42 17t42 -17t17 -42t-17 -42t-42 -17t-42 17t-17 42zM56 67q0 25 17 42t42 17t42 -17t17 -42t-17 -41.5t-42 -16.5t-42 16.5t-17 41.5z" />
    <glyph glyph-name="semicolon" unicode=";" horiz-adv-x="248" 
d="M27 -131l61 243h103l-82 -243h-82zM61 412q0 25 17 42t42 17t41.5 -17t16.5 -42t-16.5 -42t-41.5 -17t-42 17t-17 42z" />
    <glyph glyph-name="less" unicode="&#x3c;" horiz-adv-x="474" 
d="M408 546v-94l-259 -151l128 -74l131 -75v-93l-360 211v61z" />
    <glyph glyph-name="equal" unicode="=" horiz-adv-x="550" 
d="M68 333v78h413v-78h-413zM68 181v79h413v-79h-413z" />
    <glyph glyph-name="greater" unicode="&#x3e;" horiz-adv-x="480" 
d="M64 452v94l361 -215v-61l-361 -211v93l259 149z" />
    <glyph glyph-name="question" unicode="?" horiz-adv-x="476" 
d="M2 610l9 11q34 42 86 65t110 23q94 0 161 -55t66 -152q-1 -93 -56 -145.5t-141 -69.5q-1 -26 -3.5 -71t-3.5 -69h-71l-6 209q82 1 141.5 41t58.5 106q-1 60 -44.5 92.5t-103.5 32.5q-85 0 -140 -67zM141 49q0 23 15.5 38.5t38.5 15.5t38.5 -15.5t15.5 -38.5t-15.5 -38.5
t-38.5 -15.5t-38.5 15.5t-15.5 38.5z" />
    <glyph glyph-name="at" unicode="@" horiz-adv-x="756" 
d="M254 283q0 -33 18.5 -54t49.5 -21q56 0 99.5 66.5t43.5 129.5q0 84 -62 84q-69 1 -109 -65t-40 -140zM606 545l-2 3q-35 43 -90.5 66.5t-119.5 23.5q-119 0 -201 -85.5t-82 -201.5q0 -132 72 -210.5t208 -78.5q51 0 103 21l34 -64q-73 -28 -137 -28q-176 0 -266 100.5
t-90 259.5q0 151 103.5 255t253.5 104q141 0 236 -84t95 -209q0 -118 -71.5 -203t-158.5 -85q-61 0 -64 62q-18 -28 -49.5 -43t-65.5 -15q-56 0 -96 45.5t-40 102.5q0 110 63 196t166 86q31 0 60.5 -18.5t35.5 -49.5l13 35l79 -3l-87 -269q-13 -40 -6 -48q5 -4 12 -4
q45 0 89 69t44 142q0 76 -41 128z" />
    <glyph glyph-name="A" unicode="A" horiz-adv-x="619" 
d="M-4 0l254 708h102l256 -708h-88l-82 227h-273l-34.5 -97l-45.5 -130h-89zM193 311h216l-57 161l-51 146z" />
    <glyph glyph-name="B" unicode="B" horiz-adv-x="625" 
d="M153 417h188q126 0 126 105q0 103 -126 103h-188v-208zM341 333h-188v-249h188q75 -2 116 25t41 95q0 131 -157 129zM549 522q0 -94 -59 -143q92 -47 92 -176q-4 -203 -242 -203h-271v709h272q90 0 149 -48.5t59 -138.5z" />
    <glyph glyph-name="C" unicode="C" horiz-adv-x="576" 
d="M38 494q0 104 80.5 162.5t189.5 58.5q81 0 149.5 -36.5t100.5 -105.5l-75 -38q-24 46 -73 71t-105 25q-74 0 -128.5 -36t-54.5 -101v-280q0 -65 54.5 -101t128.5 -36q57 0 106 24.5t72 70.5l75 -35q-33 -69 -103 -106.5t-150 -37.5q-108 0 -187.5 58.5t-79.5 162.5v280z
" />
    <glyph glyph-name="D" unicode="D" horiz-adv-x="636" 
d="M309 0h-240v708h240q112 0 190.5 -54t78.5 -159v-283q0 -71 -40 -120.5t-99 -70.5t-130 -21zM152 84h157q78 0 131.5 32t53.5 96v283q0 65 -53.5 97t-131.5 32h-157v-540z" />
    <glyph glyph-name="E" unicode="E" horiz-adv-x="572" 
d="M522 709v-84h-370v-229h341v-84h-341v-228h370v-84h-454v709h454z" />
    <glyph glyph-name="F" unicode="F" horiz-adv-x="546" 
d="M521 708v-84h-369v-248h324v-84h-324v-292h-84v708h453z" />
    <glyph glyph-name="G" unicode="G" horiz-adv-x="653" 
d="M35 214v285q0 70 39.5 121.5t99.5 75.5t129 24q79 0 148 -37.5t102 -106.5l-76 -36q-22 46 -71 71t-105 25q-74 0 -128.5 -36t-54.5 -101v-285q0 -66 55 -102.5t130 -36.5t130.5 36.5t55.5 102.5v71h-209v83h292v-154q0 -106 -79.5 -165t-189.5 -59t-189 59t-79 165z" />
    <glyph glyph-name="H" unicode="H" horiz-adv-x="688" 
d="M522 0v312h-370v-312h-84v708h84v-313h370v313h84v-708h-84z" />
    <glyph glyph-name="I" unicode="I" horiz-adv-x="232" 
d="M66 0v708h83v-708h-83z" />
    <glyph glyph-name="J" unicode="J" horiz-adv-x="579" 
d="M415 624h-227v84h311v-500q0 -103 -77 -161.5t-182 -58.5q-91 0 -163 50.5t-90 142.5l83 14q11 -59 61 -92.5t112 -33.5q70 0 121 36.5t51 102.5v416z" />
    <glyph glyph-name="K" unicode="K" horiz-adv-x="608" 
d="M69 708h84v-356l174 171l188 185h111l-341 -341l155.5 -170l181.5 -197h-109l-288 307l-72 -72v-235h-84v708z" />
    <glyph glyph-name="L" unicode="L" horiz-adv-x="499" 
d="M493 84v-84h-424v708h84v-624h340z" />
    <glyph glyph-name="M" unicode="M" horiz-adv-x="797" 
d="M427 93h-71l-205 457v-550h-84v708h105l219 -494l219 494h105v-708h-84v551z" />
    <glyph glyph-name="N" unicode="N" horiz-adv-x="689" 
d="M69 708h90l364 -585v585h84v-708h-106l-348 561v-561h-84v708z" />
    <glyph glyph-name="O" unicode="O" horiz-adv-x="682" 
d="M51 503q0 105 84 163.5t199 58.5q73 0 136 -24t105 -75.5t42 -122.5v-297q0 -71 -42 -123t-105 -76t-136 -24q-115 0 -199 59t-84 164v297zM134 503v-297q0 -66 59 -103t141 -37q81 0 140 37t60 103v297q0 69 -59 104.5t-142 35.5q-82 -1 -140.5 -36.5t-58.5 -103.5z" />
    <glyph glyph-name="P" unicode="P" horiz-adv-x="616" 
d="M153 255v-255h-83v708h270q113 0 176 -67.5t63 -159.5t-63 -159t-175 -67h-188zM340 339q74 0 115 42t41 100q0 59 -41 101.5t-115 41.5h-187v-285h187z" />
    <glyph glyph-name="Q" unicode="Q" horiz-adv-x="683" 
d="M459 225l58 -76q17 24 17 60v290q0 69 -58.5 104.5t-141.5 35.5q-82 -1 -140 -37t-58 -103v-290q-1 -66 58 -103t140 -37q71 0 125 27l-35.5 44.5t-32.5 41.5zM571 79l47 -56l-65 -44l-44 50q-77 -43 -174 -43q-115 0 -199 59t-84 164v290q0 105 84 163.5t199 58.5
q73 0 135.5 -24t104.5 -75.5t42 -122.5v-290q0 -72 -46 -130z" />
    <glyph glyph-name="R" unicode="R" horiz-adv-x="624" 
d="M366 290l228 -290h-103l-229 289h-109v-289h-84v708h270q108 0 174 -52t68 -160q0 -100 -59 -150.5t-156 -55.5zM153 367h187q76 0 116.5 30t40.5 99q0 131 -157 128h-187v-257z" />
    <glyph glyph-name="S" unicode="S" horiz-adv-x="595" 
d="M128 528q-2 -25 7.5 -43.5t23 -30t41 -21t46 -14t55.5 -11.5q40 -8 62.5 -13.5t57.5 -17t55 -26.5t40 -38t28 -56t6 -75q-5 -92 -80 -143t-177 -51q-85 0 -158 39.5t-105 112.5l77 35q22 -49 74.5 -76.5t113.5 -27.5q68 0 117.5 30t53.5 85q2 25 -3 44.5t-19.5 33.5
t-28.5 23.5t-40.5 18t-43.5 12.5t-50 11q-41 9 -69.5 17t-62.5 23.5t-54.5 36t-35 52.5t-14.5 73q5 89 78 139.5t171 50.5q83 0 155.5 -38.5t103.5 -109.5l-76 -34q-21 48 -72.5 74.5t-110.5 26.5q-66 0 -114 -29.5t-52 -82.5z" />
    <glyph glyph-name="T" unicode="T" horiz-adv-x="551" 
d="M1 709h538v-84h-227v-625h-84v625h-227v84z" />
    <glyph glyph-name="U" unicode="U" horiz-adv-x="684" 
d="M66 708h84v-495q0 -68 54.5 -105t130.5 -37q75 0 130 37t55 105v495h84v-495q0 -106 -80 -166t-189 -60t-189 60t-80 166v495z" />
    <glyph glyph-name="V" unicode="V" horiz-adv-x="607" 
d="M347 1h-103l-255 708h89l218 -613l217 613h88z" />
    <glyph glyph-name="W" unicode="W" horiz-adv-x="924" 
d="M489 619l162 -518l171 607h86l-205 -708h-102l-149 471l-84 -264l-66 -207h-102l-205 708h87l170 -608l163 519h74z" />
    <glyph glyph-name="X" unicode="X" horiz-adv-x="589" 
d="M577 708l-242 -355l121.5 -176.5l121.5 -176.5h-102l-191 284l-191 -284h-102l243 353l-241 355h100l191 -280l191 280h101z" />
    <glyph glyph-name="Y" unicode="Y" horiz-adv-x="572" 
d="M569 708l-247 -432v-276h-84v276l-117 206l-129 226h97l192 -343l95 172l95 171h98z" />
    <glyph glyph-name="Z" unicode="Z" horiz-adv-x="563" 
d="M424 624h-395v84h490l27 -58l-414 -566h402v-84h-500l-24 59z" />
    <glyph glyph-name="bracketleft" unicode="[" horiz-adv-x="256" 
d="M230 743v-75h-86v-719h86v-75h-169v869h169z" />
    <glyph glyph-name="backslash" unicode="\" horiz-adv-x="370" 
d="M67 736l298 -747l-76 -26l-297 747z" />
    <glyph glyph-name="bracketright" unicode="]" horiz-adv-x="254" 
d="M15 -125v72h85v725h-85v72h169v-869h-169z" />
    <glyph glyph-name="asciicircum" unicode="^" horiz-adv-x="594" 
d="M53 417l209 281h57l215 -281h-98l-145 190l-139 -190h-99z" />
    <glyph glyph-name="underscore" unicode="_" horiz-adv-x="500" 
d="M-7 -83v80h501v-80h-501z" />
    <glyph glyph-name="grave" unicode="`" horiz-adv-x="210" 
d="M90 698l93 -150h-85l-119 150h111z" />
    <glyph glyph-name="a" unicode="a" horiz-adv-x="505" 
d="M355 358q0 43 -36 66t-86 23q-79 0 -123 -56l-55 53q35 39 84.5 60t99.5 21q80 0 138 -44t58 -123v-335q-105 -37 -214 -35q-80 1 -132.5 49.5t-52.5 129.5q1 87 59.5 127t146.5 40q61 0 113 -30v54zM355 69v167q-61 21 -116 21q-123 0 -124 -90q0 -48 30.5 -77.5
t77.5 -30.5q76 -2 132 10z" />
    <glyph glyph-name="b" unicode="b" horiz-adv-x="511" 
d="M49 700h80v-205q48 32 120 32q81 0 141 -46.5t60 -126.5v-194q0 -81 -58.5 -125.5t-139.5 -46.5q-94 0 -203 37v675zM129 424v-347q49 -15 123 -15q47 0 82.5 26.5t34.5 71.5v195q1 43 -34.5 67t-84.5 25q-61 0 -121 -23z" />
    <glyph glyph-name="c" unicode="c" horiz-adv-x="458" 
d="M365 385l-7 10q-13 26 -45 39t-69 13q-49 0 -84.5 -24.5t-35.5 -68.5v-191q0 -43 35.5 -67t84.5 -24q42 0 76 21t45 61l73 -35q-21 -61 -75.5 -94t-118.5 -33q-81 0 -140.5 45.5t-59.5 127.5v189q0 82 59.5 127.5t140.5 45.5q57 0 107.5 -26.5t78.5 -76.5z" />
    <glyph glyph-name="d" unicode="d" horiz-adv-x="511" 
d="M448 700v-675q-109 -37 -203 -37q-81 2 -139.5 46.5t-58.5 125.5v194q0 80 60 126.5t140 46.5q79 0 121 -32v205h80zM245 59q74 0 123 15v349q-62 24 -121 24q-49 -1 -84.5 -25t-34.5 -68v-196q-1 -44 34.5 -71.5t82.5 -27.5z" />
    <glyph glyph-name="e" unicode="e" horiz-adv-x="497" 
d="M369 358q0 43 -36.5 67t-85.5 24q-50 0 -85.5 -24t-34.5 -69v-72h242v74zM127 217v-57q-1 -45 34.5 -69t85.5 -24q37 0 70 18.5t48 52.5l72 -36q-26 -55 -78.5 -84.5t-111.5 -29.5q-81 0 -141 45.5t-60 126.5v196q0 82 59.5 127t141.5 45q80 0 139 -45t59 -127v-139h-318
z" />
    <glyph glyph-name="f" unicode="f" horiz-adv-x="268" 
d="M243 713v-78q-54 0 -83.5 -25t-29.5 -70v-96h106v-80h-106v-364h-80v540q0 83 54 127.5t139 45.5z" />
    <glyph glyph-name="g" unicode="g" horiz-adv-x="501" 
d="M61 -100l53 48q16 -21 52 -35.5t70 -14.5q51 0 87.5 24t36.5 69v29q-42 -27 -118 -27q-80 -1 -139.5 45.5t-59.5 126.5v192q0 80 58 125t137 45q58 0 139 -22q5 -1 29 -9t33 -10v-495q0 -82 -57.5 -124.5t-138.5 -42.5q-112 0 -182 76zM360 91v338q-63 24 -122 24
q-47 0 -81.5 -26t-33.5 -70v-194q-1 -43 34 -68t83 -27q63 2 120 23z" />
    <glyph glyph-name="h" unicode="h" horiz-adv-x="528" 
d="M59 698h80v-210q52 30 119 30q80 2 139.5 -45t59.5 -127v-346h-79v347q0 43 -35 66.5t-84 24.5q-65 0 -120 -22v-416h-80v698z" />
    <glyph glyph-name="i" unicode="i" horiz-adv-x="226" 
d="M47 649q0 24 16.5 40t39.5 16q24 0 40 -16t16 -40q0 -23 -16 -39.5t-40 -16.5q-23 0 -39.5 16.5t-16.5 39.5zM145 521h-80v-521h80v521z" />
    <glyph glyph-name="j" unicode="j" horiz-adv-x="220" 
d="M50 643q0 24 16.5 40t39.5 16q24 0 40 -16t16 -40q0 -23 -16 -39.5t-40 -16.5q-23 0 -39.5 16.5t-16.5 39.5zM-29 -98v-80q84 0 130 44.5t46 124.5v528h-80v-528q0 -89 -96 -89z" />
    <glyph glyph-name="k" unicode="k" horiz-adv-x="472" 
d="M58 698h80v-420l120 120l120 120h104l-234 -236l229 -282h-101l-184 225l-54 -54v-171h-80v698z" />
    <glyph glyph-name="l" unicode="l" horiz-adv-x="253" 
d="M235 76v-80q-84 0 -130 44.5t-46 124.5v534h80v-534q0 -89 96 -89z" />
    <glyph glyph-name="m" unicode="m" horiz-adv-x="822" 
d="M65 -2v471q87 47 176 47q98 0 156 -59q52 53 142 57q84 3 141 -41.5t57 -129.5v-345h-80v343q1 51 -32 73t-83 21q-40 -1 -72.5 -21t-32.5 -54v-362h-78v362q0 42 -42 63t-93 17.5t-79 -23.5v-419h-80z" />
    <glyph glyph-name="n" unicode="n" horiz-adv-x="532" 
d="M60 0v475q123 43 202 43q81 -2 138 -45.5t57 -124.5v-348h-79v348q0 44 -35 68.5t-81 24.5q-61 0 -122 -23v-418h-80z" />
    <glyph glyph-name="o" unicode="o" horiz-adv-x="513" 
d="M252 451q-49 0 -85 -24t-36 -69v-195q0 -45 36.5 -69.5t84.5 -24.5q47 0 83 24.5t36 69.5v195q0 45 -36 69t-83 24zM51 358q0 81 59.5 126.5t141.5 46.5q81 -1 140 -46.5t59 -126.5v-195q0 -82 -59 -127t-140 -46q-82 1 -141.5 46t-59.5 127v195z" />
    <glyph glyph-name="p" unicode="p" horiz-adv-x="505" 
d="M50 -181v671q114 37 203 37q81 -1 139.5 -45.5t58.5 -126.5v-191q0 -81 -60 -127.5t-141 -45.5q-77 0 -120 28v-200h-80zM130 439v-346q62 -23 121 -23q49 1 84.5 25.5t34.5 68.5v193q1 43 -34.5 68.5t-82.5 25.5q-82 0 -123 -12z" />
    <glyph glyph-name="q" unicode="q" horiz-adv-x="505" 
d="M443 -181h-80v200q-41 -28 -120 -28q-81 -1 -141 45.5t-60 127.5v191q0 82 58.5 126.5t139.5 45.5q89 0 203 -37v-671zM363 93v346q-41 12 -123 12q-47 0 -82.5 -26t-34.5 -70v-193q-1 -42 34.5 -66.5t84.5 -25.5q59 0 121 23z" />
    <glyph glyph-name="r" unicode="r" horiz-adv-x="313" 
d="M198 518q43 11 91 1v-82q-37 6 -41 6.5t-38 -4.5q-34 -9 -57 -32t-23 -57v-350h-80v350q0 67 41.5 111t106.5 57z" />
    <glyph glyph-name="s" unicode="s" horiz-adv-x="426" 
d="M12 102l60 37q25 -37 65.5 -55.5t82.5 -16.5q39 1 68 20.5t28 56.5q0 26 -17.5 43.5t-36.5 23.5t-49 12h1q-39 7 -65.5 15t-56 24.5t-45 44.5t-15.5 68q0 75 57 112.5t131 37.5q93 0 156 -62l-52 -61q-44 45 -104 45q-43 0 -76 -16.5t-33 -55.5q0 -19 11 -32.5t32 -22
t36 -12.5t38 -8q166 -31 167 -156q0 -72 -51 -110t-124 -40q-138 -3 -208 108z" />
    <glyph glyph-name="t" unicode="t" horiz-adv-x="275" 
d="M267 69v-69q-92 -12 -152 35t-60 133v541h79v-191h106v-80h-106v-270q0 -48 37 -79t96 -20z" />
    <glyph glyph-name="u" unicode="u" horiz-adv-x="517" 
d="M452 519v-490q-108 -38 -202 -38q-80 1 -138 46t-58 126v356h80v-358q0 -43 34.5 -68.5t81.5 -26.5q72 0 122 17v436h80z" />
    <glyph glyph-name="v" unicode="v" horiz-adv-x="467" 
d="M204 174l23 -102h6l21 103l120 343h85l-183 -518h-95l-183 518h85z" />
    <glyph glyph-name="w" unicode="w" horiz-adv-x="712" 
d="M347 376l-92 -376h-96l-156 518h83l97 -324l19 -115h7l14 115l43.5 179.5l35.5 144.5h88l80 -324l16 -115h7l17 115l97 324h82l-155 -518h-96z" />
    <glyph glyph-name="x" unicode="x" horiz-adv-x="451" 
d="M346 518h98l-178 -259l178 -259h-98l-128 195l-64.5 -98l-64.5 -97h-98l179 259l-179 259h98l129 -196z" />
    <glyph glyph-name="y" unicode="y" horiz-adv-x="519" 
d="M66 -101l55 50q20 -25 55 -38.5t72 -13.5q52 0 90 25t38 72v30q-34 -30 -124 -32q-82 -1 -143.5 47.5t-61.5 130.5v348h82v-350q-1 -44 35 -68.5t86 -25.5q62 0 126 25v419h80v-524q0 -85 -59 -130t-143 -45q-52 0 -103 21t-85 59z" />
    <glyph glyph-name="z" unicode="z" horiz-adv-x="438" 
d="M305 444h-281v74h352l42 -52l-308 -393h303v-73h-368l-43 51z" />
    <glyph glyph-name="braceleft" unicode="{" horiz-adv-x="287" 
d="M262 744v-72h-48q-18 0 -22 -13.5t-4 -48.5v-152q1 -95 -46 -150q47 -52 46 -148v-155q0 -32 5.5 -45t24.5 -13h44v-72h-61q-45 0 -70.5 34t-25.5 94v138q0 132 -67 132v72q67 0 67 133v138q0 60 25.5 94t70.5 34h61z" />
    <glyph glyph-name="bar" unicode="|" horiz-adv-x="222" 
d="M72 742h80v-911h-80v911z" />
    <glyph glyph-name="braceright" unicode="}" horiz-adv-x="275" 
d="M12 672v72h61q45 0 70.5 -34t25.5 -94v-138q0 -133 67 -133v-72q-67 0 -67 -132v-138q0 -60 -25.5 -94t-70.5 -34h-61v72h43q20 0 25.5 13t5.5 45v155q-1 96 45 150q-46 51 -45 148v152q0 18 -0.5 26.5t-3 18.5t-8 13.5t-14.5 3.5h-48z" />
    <glyph glyph-name="asciitilde" unicode="~" horiz-adv-x="543" 
d="M433 379l50 -46q-48 -103 -134 -103q-40 0 -94 37q-46 28 -64 28q-35 0 -80 -69l-52 43q56 103 135 103q48 0 103 -39q41 -26 55 -26q22 0 40 18.5t41 53.5z" />
    <glyph glyph-name="uni00A0" unicode="&#xa0;" horiz-adv-x="260" 
 />
    <glyph glyph-name="exclamdown" unicode="&#xa1;" horiz-adv-x="278" 
d="M91 -211v522h83v-522h-83zM191 435q0 -25 -16.5 -42t-41.5 -17t-42 17t-17 42t17 41.5t42 16.5t41.5 -16.5t16.5 -41.5z" />
    <glyph glyph-name="cent" unicode="&#xa2;" horiz-adv-x="460" 
d="M425 420l-72 -30q-23 41 -83 51v-361q73 13 91 72l71 -30q-18 -50 -63.5 -82.5t-98.5 -40.5v-88h-70v89q-68 11 -114 55t-46 115v180q0 73 45 116.5t115 52.5v90h70v-88q104 -12 155 -101zM120 168q-1 -34 22 -56t58 -30v356q-36 -7 -58.5 -29.5t-21.5 -58.5v-182z" />
    <glyph glyph-name="sterling" unicode="&#xa3;" horiz-adv-x="493" 
d="M24 0v75h98v252h-98v72h98v101q0 37 10.5 71.5t32.5 67t63.5 52t97.5 19.5q77 0 149 -65l-59 -55q-42 42 -93 42q-59 0 -89.5 -39.5t-30.5 -85.5v-108h156v-72h-156v-252h260v-75h-439z" />
    <glyph glyph-name="currency" unicode="&#xa4;" horiz-adv-x="561" 
d="M25 149l53 52q-51 65 -51 148t51 148l-27 26.5l-26 25.5l51 55l55 -55q62 47 146 47q82 0 146 -47l17.5 17.5l22.5 22.5l15 15l50 -55l-53 -52q51 -65 51 -148t-51 -148q9 -8 27.5 -26.5l25.5 -25.5l-50 -55l-55 55q-65 -47 -146 -47q-82 0 -146 47l-28.5 -29t-26.5 -26z
M105 348q0 -71 50.5 -121t119.5 -50q70 0 120.5 50t50.5 121q0 72 -50.5 123t-120.5 51q-69 0 -119.5 -51t-50.5 -123z" />
    <glyph glyph-name="yen" unicode="&#xa5;" horiz-adv-x="526" 
d="M538 699l-217 -379h127l-15 -69h-139v-49h155l-15 -69h-140v-132h-82v132h-157l15 69h142v49h-154l15 69h112l-216 379h96l188 -346l188 346h97z" />
    <glyph glyph-name="brokenbar" unicode="&#xa6;" horiz-adv-x="213" 
d="M63 696h82v-358h-82v358zM63 222h82v-359h-82v359z" />
    <glyph glyph-name="section" unicode="&#xa7;" horiz-adv-x="493" 
d="M196 235l95 -45q65 42 65 82q0 47 -70 83l-66 38q-83 -31 -83 -81q0 -30 14.5 -46.5t44.5 -31.5v1zM35 -3l75 35q15 -42 49 -65t74 -23q41 0 74 22.5t33 59.5q0 23 -19.5 43.5t-39.5 31.5t-60 29q-42 19 -63 30.5t-50.5 33.5t-42.5 50.5t-13 65.5q0 78 86 125
q-63 46 -63 118q0 75 56.5 118.5t132.5 43.5q56 0 101.5 -26.5t66.5 -81.5l-73 -40q-29 69 -98 69q-40 0 -71.5 -22.5t-31.5 -60.5q0 -17 8 -31t28 -27t34 -20.5t45 -21.5q33 -15 48.5 -23t42 -25.5t39.5 -33.5t23.5 -40.5t10.5 -53.5q0 -80 -73 -126q60 -48 60 -116
q0 -79 -56 -125.5t-134 -46.5q-67 0 -120.5 33.5t-78.5 100.5z" />
    <glyph glyph-name="dieresis" unicode="&#xa8;" horiz-adv-x="281" 
d="M172 651q0 23 15 38t37 15t37 -15.5t15 -37.5t-15 -37t-37 -15t-37 15t-15 37zM1 651q0 22 15 37.5t37 15.5t37 -15.5t15 -37.5t-15 -37t-37 -15t-37 15t-15 37z" />
    <glyph glyph-name="copyright" unicode="&#xa9;" horiz-adv-x="788" 
d="M25 349q0 151 107.5 258.5t259.5 107.5t259 -107.5t107 -258.5t-107 -258.5t-259 -107.5t-259.5 107.5t-107.5 258.5zM102 349q0 -119 85 -204.5t205 -85.5q119 0 204 85.5t85 204.5q0 120 -85 205t-204 85q-120 0 -205 -85t-85 -205zM499 454l6 -9l61 36q-27 46 -74 71
t-100 25q-75 0 -131 -42.5t-56 -119.5v-140q0 -77 56 -119.5t131 -42.5q60 0 111 30t70 88l-68 33q-10 -37 -42 -57t-71 -20q-46 0 -79 22.5t-33 63.5v142q0 42 33 64.5t79 22.5q81 0 107 -48z" />
    <glyph glyph-name="ordfeminine" unicode="&#xaa;" horiz-adv-x="333" 
d="M218 557v35q0 20 -20 33t-45 13q-51 0 -84 -40l-49 46q60 66 137 66q57 0 98 -31.5t41 -88.5v-228q-75 -25 -151 -23q-58 1 -95 33t-37 90q1 110 146 110q32 0 59 -15zM218 412v93q-36 8 -61 8q-28 0 -46.5 -12.5t-19.5 -38.5q0 -25 15.5 -39.5t39.5 -15.5q30 0 72 5z
" />
    <glyph glyph-name="guillemotleft" unicode="&#xab;" horiz-adv-x="431" 
d="M164 83l-142 210l142 211l69 -42l-116 -169l50 -72l66 -97zM323 83l-141 210l141 211l69 -42l-115 -169l115 -169z" />
    <glyph glyph-name="logicalnot" unicode="&#xac;" horiz-adv-x="567" 
d="M435 161v165h-400v79h479v-244h-79z" />
    <glyph glyph-name="uni00AD" unicode="&#xad;" horiz-adv-x="333" 
d="M32 202v82h261v-82h-261z" />
    <glyph glyph-name="registered" unicode="&#xae;" horiz-adv-x="781" 
d="M321 297v-141h-72v391h150q71 0 108 -32t37 -91q0 -96 -89 -123l50.5 -70l53.5 -74h-85l-102 140h-51zM321 479v-114h50q45 0 72 11.5t27 47.5q0 28 -22 41.5t-52 13.5h-75zM19 349q0 151 107.5 258.5t258.5 107.5t258.5 -107.5t107.5 -258.5t-107.5 -258.5
t-258.5 -107.5t-258.5 107.5t-107.5 258.5zM99 349q0 -118 84 -201.5t202 -83.5t201.5 83.5t83.5 201.5t-83.5 202t-201.5 84q-119 0 -202.5 -83.5t-83.5 -202.5z" />
    <glyph glyph-name="macron" unicode="&#xaf;" 
d="M255 689v-82h-277v82h277z" />
    <glyph glyph-name="degree" unicode="&#xb0;" horiz-adv-x="349" 
d="M169 426q-59 0 -100 41t-41 100q0 58 41 99t100 41q58 0 99 -41t41 -99t-41.5 -99.5t-98.5 -41.5zM169 500q27 0 46.5 19.5t19.5 46.5t-19.5 47t-46.5 20t-47 -20t-20 -47t20 -46.5t47 -19.5z" />
    <glyph glyph-name="plusminus" unicode="&#xb1;" horiz-adv-x="567" 
d="M61 360v80h173v165h81v-165h177v-80h-177v-166h-81v166h-173zM59 65v79h435v-79h-435z" />
    <glyph glyph-name="twosuperior" unicode="&#xb2;" horiz-adv-x="346" 
d="M258 468l-136 -124h192v-75h-286l-22 53l200 192q33 24 36 54t-20.5 50t-61.5 20q-34 -1 -60 -19.5t-36 -39.5l-60 27q39 100 154 100q48 0 89 -22.5t60 -64.5q7 -21 7 -42q0 -59 -57 -109h1z" />
    <glyph glyph-name="threesuperior" unicode="&#xb3;" horiz-adv-x="345" 
d="M307 582q0 -50 -49 -77q32 -12 50 -39t18 -60q-2 -50 -33 -84q-48 -54 -136 -50q-44 2 -83.5 24t-57.5 60l-10 20l68 32l9 -20q8 -19 31 -30t48 -13q51 -4 80 31v-1q21 34 1.5 66.5t-64.5 29.5h-44v57h44q31 2 48.5 30t-3.5 54q-18 21 -56 21q-52 0 -73 -35l-7 -14
l-65 28q19 48 57 69t80 23q31 1 64 -10q35 -13 53 -32q30 -34 30 -80z" />
    <glyph glyph-name="acute" unicode="&#xb4;" horiz-adv-x="213" 
d="M17 558l93 150h111l-118 -150h-86z" />
    <glyph glyph-name="mu" unicode="&#xb5;" horiz-adv-x="502" 
d="M450 512l2 -514h-81l-1 48q-48 -57 -142 -57q-57 0 -98 33v-238h-83v728h84v-318q0 -128 97 -128q60 0 99 43t39 123v280h84z" />
    <glyph glyph-name="paragraph" unicode="&#xb6;" horiz-adv-x="551" 
d="M228 -120v372q-102 4 -159.5 69t-57.5 151q0 92 64.5 159t180.5 67h229v-818h-82v746h-92v-746h-83z" />
    <glyph glyph-name="periodcentered" unicode="&#xb7;" horiz-adv-x="260" 
d="M68 315q0 25 17 42t42 17t41.5 -17t16.5 -42t-16.5 -42t-41.5 -17t-42 17t-17 42z" />
    <glyph glyph-name="cedilla" unicode="&#xb8;" 
d="M168 27l-31 -50q31 -2 55 -25t23 -55q-1 -44 -33 -68t-73 -24q-37 0 -92 25l21 56q37 -19 69 -19q23 0 34 12.5t2.5 25t-33.5 12.5q-19 0 -37 -9l-26 27l58 92h63z" />
    <glyph glyph-name="onesuperior" unicode="&#xb9;" horiz-adv-x="282" 
d="M128 274v317l-43 -58l-56 45l108 125h65v-429h-74z" />
    <glyph glyph-name="ordmasculine" unicode="&#xba;" horiz-adv-x="373" 
d="M183 332q-63 0 -110.5 35t-47.5 97v110q0 62 47.5 97t110.5 35q64 0 111.5 -35t47.5 -97v-110q0 -62 -47.5 -97t-111.5 -35zM100 574v-110q0 -30 24.5 -44t58.5 -14t59 14t25 44v110q0 30 -25 44t-59 14t-58.5 -14t-24.5 -44z" />
    <glyph glyph-name="guillemotright" unicode="&#xbb;" horiz-adv-x="430" 
d="M261 504l141 -211l-141 -210l-69 40l115 170l-115 169zM97 504l142 -211l-142 -210l-69 40l116 170l-50 72l-66 97z" />
    <glyph glyph-name="onequarter" unicode="&#xbc;" horiz-adv-x="724" 
d="M84 3l446 732l67 -40l-447 -732zM118 591v-317h74v429h-65l-108 -125l56 -45zM645 171v275h-71l-236 -285l42 -61h190v-102h75v102h39v71h-39zM570 171h-131l134 165z" />
    <glyph glyph-name="onehalf" unicode="&#xbd;" horiz-adv-x="774" 
d="M72 3l446 732l66 -40l-447 -732zM118 591v-317h74v429h-65l-108 -125l56 -45zM544 75l136 124h-1q57 50 57 109q0 21 -7 42q-19 42 -60 64.5t-89 22.5q-115 0 -154 -100l60 -27q10 21 36 39.5t60 19.5q38 0 61.5 -20t20.5 -50t-36 -54l-200 -192l22 -53h286v75h-192z" />
    <glyph glyph-name="threequarters" unicode="&#xbe;" horiz-adv-x="783" 
d="M152 3l446 732l66 -40l-447 -732zM307 582q0 46 -30 80q-18 19 -53 32q-33 11 -64 10q-42 -2 -80 -23t-57 -69l65 -28l7 14q21 35 73 35q38 0 56 -21q21 -26 3.5 -54t-48.5 -30h-44v-57h44q45 3 64.5 -29.5t-1.5 -66.5v1q-29 -35 -80 -31q-25 2 -48 13t-31 30l-12 20
l-65 -32l10 -20q18 -38 57.5 -60t83.5 -24q88 -4 136 50q31 34 33 84q0 33 -18 60t-50 39q49 27 49 77zM714 171v275h-71l-236 -285l42 -61h190v-102h75v102h39v71h-39zM639 171h-131l134 165z" />
    <glyph glyph-name="questiondown" unicode="&#xbf;" horiz-adv-x="465" 
d="M441 -99l9 11l-63 49q-55 -67 -140 -67q-60 0 -103.5 32.5t-44.5 92.5q-1 66 58.5 106t141.5 41l-6 209h-71q-1 -24 -3.5 -69t-3.5 -71q-86 -17 -141 -69.5t-56 -145.5q-1 -97 66 -152t161 -55q58 0 110 23t86 65zM311 473q0 -23 -15.5 -38.5t-38.5 -15.5t-38.5 15.5
t-15.5 38.5t15.5 38.5t38.5 15.5t38.5 -15.5t15.5 -38.5z" />
    <glyph glyph-name="Agrave" unicode="&#xc0;" horiz-adv-x="619" 
d="M250 708l-254 -708h89l45.5 130l34.5 97h273l82 -227h88l-256 708h-102zM409 311h-216l108 307l51 -146zM261 896l93 -150h-85l-119 150h111z" />
    <glyph glyph-name="Aacute" unicode="&#xc1;" horiz-adv-x="619" 
d="M262 745l95 152h112l-120 -152h-87zM-4 0l254 708h102l256 -708h-88l-82 227h-273l-34.5 -97l-45.5 -130h-89zM193 311h216l-50.5 139.5l-57.5 160.5l-60 -168z" />
    <glyph glyph-name="Acircumflex" unicode="&#xc2;" horiz-adv-x="619" 
d="M250 708l-254 -708h89l45.5 130l34.5 97h273l82 -227h88l-256 708h-102zM409 311h-216l108 307l51 -146zM136 734l127 139h76l127 -139h-98l-69 71l-65 -71h-98z" />
    <glyph glyph-name="Atilde" unicode="&#xc3;" horiz-adv-x="619" 
d="M250 708l-254 -708h89l45.5 130l34.5 97h273l82 -227h88l-256 708h-102zM409 311h-216l108 307l51 -146zM218 737l-55 20q8 40 32.5 62t56.5 22q14 0 43 -13.5t44 -13.5t28 27l57 -20q-15 -79 -84 -79q-18 0 -49 13.5t-45 13.5q-18 0 -28 -32z" />
    <glyph glyph-name="Adieresis" unicode="&#xc4;" horiz-adv-x="619" 
d="M250 708l-254 -708h89l45.5 130l34.5 97h273l82 -227h88l-256 708h-102zM409 311h-216l108 307l51 -146zM338 790q0 23 15 38t37 15t37 -15.5t15 -37.5t-15 -37t-37 -15t-37 15t-15 37zM167 790q0 22 15 37.5t37 15.5t37 -15.5t15 -37.5t-15 -37t-37 -15t-37 15t-15 37z
" />
    <glyph glyph-name="Aring" unicode="&#xc5;" horiz-adv-x="619" 
d="M250 708l-254 -708h89l45.5 130l34.5 97h273l82 -227h88l-256 708h-102zM409 311h-216l108 307l51 -146zM199 829q0 42 30 72.5t73 30.5q42 0 71 -31.5t29 -72.5q0 -40 -29.5 -71t-70.5 -31q-43 0 -73 30.5t-30 72.5zM334 829q0 14 -9.5 24.5t-23.5 10.5t-23.5 -10.5
t-9.5 -25.5q0 -14 9.5 -24t23.5 -10t23.5 10.5t9.5 24.5z" />
    <glyph glyph-name="AE" unicode="&#xc6;" horiz-adv-x="822" 
d="M367 708h406v-84h-290v-229h261v-83h-261v-230h290v-82h-374v227h-184l-113 -227h-96zM404 625l-154 -322h149z" />
    <glyph glyph-name="Ccedilla" unicode="&#xc7;" horiz-adv-x="576" 
d="M38 494q0 104 80.5 162.5t189.5 58.5q81 0 149.5 -36.5t100.5 -105.5l-75 -38q-24 46 -73 71t-105 25q-74 0 -128.5 -36t-54.5 -101v-280q0 -65 54.5 -101t128.5 -36q57 0 106 24.5t72 70.5l75 -35q-32 -68 -101 -105t-148 -39q0 -7 -11 -21q32 -2 56 -26.5t23 -56.5
q-1 -43 -33 -65t-74 -22q-35 0 -93 27l23 59q34 -19 68 -19q36 0 36 21q0 20 -35 20q-19 0 -37 -10l-27 27l40 70q-90 14 -148.5 70t-58.5 147v280z" />
    <glyph glyph-name="Egrave" unicode="&#xc8;" horiz-adv-x="572" 
d="M522 709v-84h-370v-229h341v-84h-341v-228h370v-84h-454v709h454zM259 894l94 -152h-86l-120 152h112z" />
    <glyph glyph-name="Eacute" unicode="&#xc9;" horiz-adv-x="572" 
d="M522 709v-84h-370v-229h341v-84h-341v-228h370v-84h-454v709h454zM248 746l93 150h111l-118 -150h-86z" />
    <glyph glyph-name="Ecircumflex" unicode="&#xca;" horiz-adv-x="572" 
d="M522 709v-84h-370v-229h341v-84h-341v-228h370v-84h-454v709h454zM134 742l129 141h77l128 -141h-99l-70 72q-10 -12 -32.5 -36t-32.5 -36h-100z" />
    <glyph glyph-name="Edieresis" unicode="&#xcb;" horiz-adv-x="572" 
d="M522 709v-84h-370v-229h341v-84h-341v-228h370v-84h-454v709h454zM340 795q0 22 15 37.5t37 15.5t37.5 -15t15.5 -38t-15.5 -38t-37.5 -15t-37 15.5t-15 37.5zM166 795q0 23 15 38t38 15t38 -15t15 -38t-15 -38t-38 -15t-38 15t-15 38z" />
    <glyph glyph-name="Igrave" unicode="&#xcc;" horiz-adv-x="232" 
d="M65 0v708h83v-708h-83zM53 895l95 -152h-87l-120 152h112z" />
    <glyph glyph-name="Iacute" unicode="&#xcd;" horiz-adv-x="232" 
d="M66 0v708h83v-708h-83zM59 748l93 150h111l-118 -150h-86z" />
    <glyph glyph-name="Icircumflex" unicode="&#xce;" horiz-adv-x="232" 
d="M66 0v708h83v-708h-83zM-63 730l128 138h79l130 -138h-101l-70 70l-33 -35l-33 -35h-100z" />
    <glyph glyph-name="Idieresis" unicode="&#xcf;" horiz-adv-x="232" 
d="M66 0v708h83v-708h-83zM143 796q0 22 15 37.5t37 15.5q23 0 38 -15.5t15 -37.5t-15.5 -37.5t-37.5 -15.5t-37 15.5t-15 37.5zM-31 796q0 22 15.5 37.5t37.5 15.5t37.5 -15.5t15.5 -37.5t-15.5 -37.5t-37.5 -15.5t-37.5 15.5t-15.5 37.5z" />
    <glyph glyph-name="Eth" unicode="&#xd0;" horiz-adv-x="613" 
d="M1 311v78h60v319h241q111 0 189.5 -54t78.5 -159v-283q0 -71 -40 -120.5t-98.5 -70.5t-129.5 -21h-241v311h-60zM145 84h157q77 0 131 32t54 96v283q0 65 -54 97t-131 32h-157v-235h120v-78h-120v-227z" />
    <glyph glyph-name="Ntilde" unicode="&#xd1;" horiz-adv-x="689" 
d="M69 708h90l364 -585v585h84v-708h-106l-348 561v-561h-84v708zM271 718l-56 20q9 41 33.5 62.5t57.5 21.5q28 0 56 -15q17 -10 32 -10q16 0 28 26l58 -21q-15 -80 -85 -80q-30 0 -55 13q-26 13 -41 13q-18 0 -28 -30z" />
    <glyph glyph-name="Ograve" unicode="&#xd2;" horiz-adv-x="682" 
d="M51 503q0 105 84 163.5t199 58.5q73 0 136 -24t105 -75.5t42 -122.5v-297q0 -71 -42 -123t-105 -76t-136 -24q-115 0 -199 59t-84 164v297zM134 503v-297q0 -66 59 -103t141 -37q81 0 140 37t60 103v297q0 69 -59 104.5t-142 35.5q-82 -1 -140.5 -36.5t-58.5 -103.5z
M289 891l87 -141h-86l-114 141h113z" />
    <glyph glyph-name="Oacute" unicode="&#xd3;" horiz-adv-x="682" 
d="M51 503q0 105 84 163.5t199 58.5q73 0 136 -24t105 -75.5t42 -122.5v-297q0 -71 -42 -123t-105 -76t-136 -24q-115 0 -199 59t-84 164v297zM134 503v-297q0 -66 59 -103t141 -37q81 0 140 37t60 103v297q0 69 -59 104.5t-142 35.5q-82 -1 -140.5 -36.5t-58.5 -103.5z
M296 748l93 150h111l-118 -150h-86z" />
    <glyph glyph-name="Ocircumflex" unicode="&#xd4;" horiz-adv-x="682" 
d="M51 503q0 105 84 163.5t199 58.5q73 0 136 -24t105 -75.5t42 -122.5v-297q0 -71 -42 -123t-105 -76t-136 -24q-115 0 -199 59t-84 164v297zM134 503v-297q0 -66 59 -103t141 -37q81 0 140 37t60 103v297q0 69 -59 104.5t-142 35.5q-82 -1 -140.5 -36.5t-58.5 -103.5z
M164 745l129 142h77l129 -142h-99l-70 73q-57 -62 -66 -73h-100z" />
    <glyph glyph-name="Otilde" unicode="&#xd5;" horiz-adv-x="682" 
d="M51 503q0 105 84 163.5t199 58.5q73 0 136 -24t105 -75.5t42 -122.5v-297q0 -71 -42 -123t-105 -76t-136 -24q-115 0 -199 59t-84 164v297zM134 503v-297q0 -66 59 -103t141 -37q81 0 140 37t60 103v297q0 69 -59 104.5t-142 35.5q-82 -1 -140.5 -36.5t-58.5 -103.5z
M255 751l-56 20q8 41 32.5 63t57.5 22q25 0 57 -15q17 -10 32 -10q16 0 28 26l57 -21q-14 -80 -84 -80q-32 0 -55 13q-32 13 -41 13q-19 0 -28 -31z" />
    <glyph glyph-name="Odieresis" unicode="&#xd6;" horiz-adv-x="682" 
d="M51 503q0 105 84 163.5t199 58.5q73 0 136 -24t105 -75.5t42 -122.5v-297q0 -71 -42 -123t-105 -76t-136 -24q-115 0 -199 59t-84 164v297zM134 503v-297q0 -66 59 -103t141 -37q81 0 140 37t60 103v297q0 69 -59 104.5t-142 35.5q-82 -1 -140.5 -36.5t-58.5 -103.5z
M369 798q0 22 15.5 37.5t37.5 15.5t37.5 -15.5t15.5 -37.5t-15.5 -37t-37.5 -15t-37.5 15t-15.5 37zM196 798q0 22 15 37.5t38 15.5t38 -15.5t15 -37.5t-15.5 -37t-37.5 -15t-37.5 15t-15.5 37z" />
    <glyph glyph-name="multiply" unicode="&#xd7;" horiz-adv-x="478" 
d="M25 455l57 57l156 -156l152 153l56 -57l-150 -151l149 -149l-57 -58l-150 150l-154 -154l-56 58l152 152z" />
    <glyph glyph-name="Oslash" unicode="&#xd8;" horiz-adv-x="682" 
d="M51 503q0 105 84 163.5t199 58.5q49 0 100 -12l28 72l76 -27l-30 -76q109 -59 109 -179v-297q0 -71 -42 -123t-105 -76t-136 -24q-50 0 -98 12q-4 -11 -14 -36t-14 -36l-76 27l28 76q-109 62 -109 180v297zM134 503v-297q0 -63 58 -103l211 533q-29 7 -70 7
q-82 -1 -140.5 -36.5t-58.5 -103.5zM534 503q0 67 -57 102l-210 -532q29 -7 67 -7q80 0 139.5 37t60.5 103v297z" />
    <glyph glyph-name="Ugrave" unicode="&#xd9;" horiz-adv-x="684" 
d="M66 708h84v-495q0 -68 54.5 -105t130.5 -37q75 0 130 37t55 105v495h84v-495q0 -106 -80 -166t-189 -60t-189 60t-80 166v495zM303 870l94 -152h-87l-120 152h113z" />
    <glyph glyph-name="Uacute" unicode="&#xda;" horiz-adv-x="684" 
d="M66 708h84v-495q0 -68 54.5 -105t130.5 -37q75 0 130 37t55 105v495h84v-495q0 -106 -80 -166t-189 -60t-189 60t-80 166v495zM276 720l93 150h111l-118 -150h-86z" />
    <glyph glyph-name="Ucircumflex" unicode="&#xdb;" horiz-adv-x="684" 
d="M174 734l129 142h77l129 -142h-99l-71 73l-34.5 -39l-30.5 -34h-100zM66 708h84v-495q0 -68 54.5 -105t130.5 -37q75 0 130 37t55 105v495h84v-495q0 -106 -80 -166t-189 -60t-189 60t-80 166v495z" />
    <glyph glyph-name="Udieresis" unicode="&#xdc;" horiz-adv-x="684" 
d="M66 708h84v-495q0 -69 54.5 -107.5t130.5 -38.5q75 0 130 38.5t55 107.5v495h84v-495q0 -106 -80 -166t-189 -60t-189 60t-80 166v495zM370 793q0 23 15 38t38 15t38 -15t15 -38t-15 -38t-38 -15t-38 15t-15 38zM197 793q0 23 15.5 38t37.5 15t37.5 -15t15.5 -38
t-15.5 -38t-37.5 -15t-37.5 15t-15.5 38z" />
    <glyph glyph-name="Yacute" unicode="&#xdd;" horiz-adv-x="563" 
d="M569 708l-247 -432v-276h-84v276l-117 206l-129 226h97l192 -343l95 172l95 171h98zM222 720l93 150h111l-118 -150h-86z" />
    <glyph glyph-name="Thorn" unicode="&#xde;" horiz-adv-x="549" 
d="M152 715v-132q48 4 77 4q137 0 209 -57t72 -165q0 -61 -25 -106t-68 -69t-92.5 -35t-107.5 -11h-39l7 83h29q40 0 74.5 6t67 20.5t51 43t18.5 68.5q0 41 -18.5 70t-50 42.5t-63 19.5t-68.5 6q-35 0 -73 -5v-497h-85v714h85z" />
    <glyph glyph-name="germandbls" unicode="&#xdf;" horiz-adv-x="592" 
d="M286 83q74 -2 127 32t53 98q0 66 -42.5 98.5t-112.5 31.5h-101v80h101q53 0 89 30t36 85t-42 81.5t-101 26.5q-58 0 -101 -29t-43 -85v-533h-81v533q0 90 67.5 142t157.5 52q91 0 158.5 -49.5t67.5 -138.5q0 -99 -64 -149q95 -45 95 -176q-2 -103 -79.5 -159.5
t-183.5 -54.5q-48 1 -97 25l1 89q58 -30 95 -30z" />
    <glyph glyph-name="agrave" unicode="&#xe0;" horiz-adv-x="505" 
d="M355 358v-54q-52 30 -113 30q-88 0 -146.5 -40t-59.5 -127q0 -81 52.5 -129.5t132.5 -49.5q109 -2 214 35v335q0 79 -58 123t-138 44q-50 0 -99.5 -21t-84.5 -60l55 -53q44 56 123 56q50 0 86 -23t36 -66zM355 236v-167q-56 -12 -132 -10q-47 1 -77.5 30.5t-30.5 77.5
q1 90 124 90q55 0 116 -21zM212 675l81 -131h-74l-104 131h97z" />
    <glyph glyph-name="aacute" unicode="&#xe1;" horiz-adv-x="505" 
d="M191 546l83 136h105l-110 -136h-78zM355 358q0 43 -36 66t-86 23q-79 0 -123 -56l-55 53q35 39 84.5 60t99.5 21q80 0 138 -44t58 -123v-335q-105 -37 -214 -35q-80 1 -132.5 49.5t-52.5 129.5q1 87 60.5 131t145.5 44q62 0 113 -19v35zM355 72v172q-61 21 -116 21
q-54 0 -88.5 -23t-35.5 -75q0 -48 30.5 -76t77.5 -29q76 -2 132 10z" />
    <glyph glyph-name="acircumflex" unicode="&#xe2;" horiz-adv-x="505" 
d="M355 358v-54q-52 30 -113 30q-88 0 -146.5 -40t-59.5 -127q0 -81 52.5 -129.5t132.5 -49.5q109 -2 214 35v335q0 79 -58 123t-138 44q-50 0 -99.5 -21t-84.5 -60l55 -53q44 56 123 56q50 0 86 -23t36 -66zM355 236v-167q-56 -12 -132 -10q-47 1 -77.5 30.5t-30.5 77.5
q1 90 124 90q55 0 116 -21zM104 538l111 120h66l110 -120h-85l-60 60q-9 -10 -28.5 -30t-28.5 -30h-85z" />
    <glyph glyph-name="atilde" unicode="&#xe3;" horiz-adv-x="505" 
d="M355 358v-54q-52 30 -113 30q-88 0 -146.5 -40t-59.5 -127q0 -81 52.5 -129.5t132.5 -49.5q109 -2 214 35v335q0 79 -58 123t-138 44q-50 0 -99.5 -21t-84.5 -60l55 -53q44 56 123 56q50 0 86 -23t36 -66zM355 236v-167q-56 -12 -132 -10q-47 1 -77.5 30.5t-30.5 77.5
q1 90 124 90q55 0 116 -21zM176 547l-50 18q7 37 29 56.5t51 19.5q13 0 39 -12t40 -12t25 24l51 -18q-14 -71 -76 -71q-15 0 -43 12t-41 12q-17 0 -25 -29z" />
    <glyph glyph-name="adieresis" unicode="&#xe4;" horiz-adv-x="505" 
d="M355 358v-54q-52 30 -113 30q-88 0 -146.5 -40t-59.5 -127q0 -81 52.5 -129.5t132.5 -49.5q109 -2 214 35v335q0 79 -58 123t-138 44q-50 0 -99.5 -21t-84.5 -60l55 -53q44 56 123 56q50 0 86 -23t36 -66zM355 236v-167q-56 -12 -132 -10q-47 1 -77.5 30.5t-30.5 77.5
q1 90 124 90q55 0 116 -21zM274 585q0 20 12.5 32.5t31.5 12.5t32 -13t13 -32t-13 -32t-32 -13t-31.5 13t-12.5 32zM127 585q0 19 13 32t31 13q19 0 32 -13t13 -32t-13 -32t-32 -13q-18 0 -31 13t-13 32z" />
    <glyph glyph-name="aring" unicode="&#xe5;" horiz-adv-x="505" 
d="M355 358v-54q-52 30 -113 30q-88 0 -146.5 -40t-59.5 -127q0 -81 52.5 -129.5t132.5 -49.5q109 -2 214 35v335q0 79 -58 123t-138 44q-50 0 -99.5 -21t-84.5 -60l55 -53q44 56 123 56q50 0 86 -23t36 -66zM355 236v-167q-56 -12 -132 -10q-47 1 -77.5 30.5t-30.5 77.5
q1 90 124 90q55 0 116 -21zM162 626q0 34 25 59t59 25t58 -25.5t24 -59.5q0 -33 -24 -58t-58 -25t-59 25t-25 59zM273 626q0 11 -8 20t-19 9q-12 0 -19.5 -9t-7.5 -21q0 -11 8 -19.5t19 -8.5t19 8.5t8 20.5z" />
    <glyph glyph-name="ae" unicode="&#xe6;" horiz-adv-x="817" 
d="M355 309v51q0 43 -36 66t-86 23q-79 0 -123 -56l-55 53q72 81 183 81q48 0 93 -22.5t66 -60.5q21 41 64.5 61.5t92.5 20.5q81 0 140 -45.5t59 -127.5v-132h-319v-61q0 -43 35.5 -67t84.5 -24q39 0 72 18t47 52l72 -35q-26 -55 -78.5 -84.5t-112.5 -29.5q-91 0 -149 53
q-68 -53 -169 -53q-84 0 -142 44.5t-58 130.5q0 88 60.5 133t148.5 45q77 0 110 -34zM364 103q-9 26 -9 59v83q-58 20 -113 20t-90 -23.5t-36 -76.5q1 -49 35 -73t86 -24q69 0 127 35zM434 358v-68h240v65q0 43 -35.5 67t-84.5 24q-48 0 -83.5 -23t-36.5 -65z" />
    <glyph glyph-name="ccedilla" unicode="&#xe7;" horiz-adv-x="444" 
d="M257 -7l-10 -19q31 -2 54 -25t22 -56q-1 -42 -31.5 -62.5t-72.5 -20.5q-40 0 -92 25l21 55q35 -18 69 -18q39 0 39 22q0 20 -36 20q-15 0 -37 -9l-26 26l41 64q-68 12 -115 56t-47 114v189q0 82 59.5 127.5t140.5 45.5q57 0 107.5 -26.5t78.5 -76.5l-68 -44
q-16 33 -48.5 50t-69.5 17q-49 0 -84.5 -24t-35.5 -67v-193q0 -43 35.5 -67t84.5 -24q42 0 76 21t45 61l73 -36q-20 -55 -67.5 -87t-105.5 -38z" />
    <glyph glyph-name="egrave" unicode="&#xe8;" horiz-adv-x="493" 
d="M365 358v-74h-242v72q-1 45 34.5 69t85.5 24q49 0 85.5 -24t36.5 -67zM123 160v57h318v139q0 82 -59 127t-139 45q-82 0 -141.5 -45t-59.5 -127v-196q0 -81 60 -126.5t141 -45.5q59 0 111.5 29.5t78.5 84.5l-72 36q-15 -34 -48 -52.5t-70 -18.5q-50 0 -85.5 24t-34.5 69z
M231 673l77 -125h-77l-101 125h101z" />
    <glyph glyph-name="eacute" unicode="&#xe9;" horiz-adv-x="493" 
d="M202 548l83 134h105l-110 -134h-78zM362 358q0 43 -35.5 67t-83.5 24q-50 0 -85.5 -24t-34.5 -69v-68h239v70zM123 215v-55q-1 -45 34.5 -69t85.5 -24q37 0 70 18.5t48 52.5l72 -36q-26 -55 -78.5 -84.5t-111.5 -29.5q-81 0 -141 45.5t-60 126.5v196q0 82 59.5 127
t141.5 45q80 0 139.5 -45t59.5 -127v-141h-319z" />
    <glyph glyph-name="ecircumflex" unicode="&#xea;" horiz-adv-x="493" 
d="M365 358v-74h-242v72q-1 45 34.5 69t85.5 24q49 0 85.5 -24t36.5 -67zM123 160v57h318v139q0 82 -59 127t-139 45q-82 0 -141.5 -45t-59.5 -127v-196q0 -81 60 -126.5t141 -45.5q59 0 111.5 29.5t78.5 84.5l-72 36q-15 -34 -48 -52.5t-70 -18.5q-50 0 -85.5 24t-34.5 69z
M99 539l112 118h67l112 -118h-87l-61 57q-10 -11 -29.5 -29.5t-27.5 -27.5h-86z" />
    <glyph glyph-name="edieresis" unicode="&#xeb;" horiz-adv-x="493" 
d="M365 358v-74h-242v72q-1 45 34.5 69t85.5 24q49 0 85.5 -24t36.5 -67zM123 160v57h318v139q0 82 -59 127t-139 45q-82 0 -141.5 -45t-59.5 -127v-196q0 -81 60 -126.5t141 -45.5q59 0 111.5 29.5t78.5 84.5l-72 36q-15 -34 -48 -52.5t-70 -18.5q-50 0 -85.5 24t-34.5 69z
M276 590q0 20 13.5 33.5t32.5 13.5t32.5 -13.5t13.5 -33.5t-13 -33t-33 -13t-33 13t-13 33zM126 590q0 20 13.5 33.5t32.5 13.5t32 -13.5t13 -33.5q0 -19 -13 -32.5t-32 -13.5q-20 0 -33 13t-13 33z" />
    <glyph glyph-name="igrave" unicode="&#xec;" 
d="M70 638l83 -133h-78l-110 133h105zM74 0v481h84v-481h-84z" />
    <glyph glyph-name="iacute" unicode="&#xed;" 
d="M74 507l82 133h106l-110 -133h-78zM74 0v481h84v-481h-84z" />
    <glyph glyph-name="icircumflex" unicode="&#xee;" 
d="M-30 503l114 129h70l115 -129h-90l-63 64l-57 -64h-89zM74 0v481h84v-481h-84z" />
    <glyph glyph-name="idieresis" unicode="&#xef;" horiz-adv-x="239" 
d="M130 560q0 20 13.5 33.5t34.5 13.5q20 0 33.5 -13.5t13.5 -33.5q0 -21 -13.5 -34.5t-33.5 -13.5q-21 0 -34.5 13.5t-13.5 34.5zM9 560q0 20 13.5 33.5t33.5 13.5t34 -13.5t14 -33.5q0 -21 -14 -34.5t-34 -13.5t-33.5 13.5t-13.5 34.5zM75 0v479h84v-479h-84z" />
    <glyph glyph-name="eth" unicode="&#xf0;" horiz-adv-x="526" 
d="M133 576l-56 51q36 42 88.5 62t106.5 17l22 66l67 -23l-18 -57q111 -43 111 -155v-501l-62 -19q-86 -23 -140 -23q-78 1 -135.5 46t-57.5 125v144q0 79 59 125.5t138 45.5q67 0 119 -22v79q0 52 -56 80l-24 -75l-67 22l21 65q-76 -2 -116 -53zM382 375l-7 12v-9zM253 73
q62 0 122 24v281q-60 23 -121 23q-48 -1 -82 -24.5t-34 -67.5v-145q0 -44 34 -67.5t81 -23.5z" />
    <glyph glyph-name="ntilde" unicode="&#xf1;" horiz-adv-x="532" 
d="M60 475v-475h80v418q61 23 122 23q46 0 81 -24.5t35 -68.5v-348h79v348q0 81 -57 124.5t-138 45.5q-79 0 -202 -43zM185 547l-48 18q7 36 28.5 55.5t49.5 19.5q13 0 38 -12t38 -12q14 0 25 24l50 -18q-14 -71 -74 -71q-16 0 -42.5 12.5t-39.5 12.5q-17 0 -25 -29z" />
    <glyph glyph-name="ograve" unicode="&#xf2;" horiz-adv-x="503" 
d="M246 451q47 0 83 -24t36 -69v-195q0 -45 -36 -69.5t-83 -24.5q-48 0 -84.5 24.5t-36.5 69.5v195q0 45 36 69t85 24zM45 358v-195q0 -82 59.5 -127t141.5 -46q81 1 140 46t59 127v195q0 81 -59 126.5t-140 46.5q-82 -1 -141.5 -46.5t-59.5 -126.5zM223 675l71 -121h-84
l-94 121h107z" />
    <glyph glyph-name="oacute" unicode="&#xf3;" horiz-adv-x="503" 
d="M205 554l66 120h108l-93 -120h-81zM246 451q-49 0 -85 -24t-36 -69v-195q0 -45 36.5 -69.5t84.5 -24.5q47 0 83 24.5t36 69.5v195q0 45 -36 69t-83 24zM45 358q0 81 59.5 126.5t141.5 46.5q81 -1 140 -46.5t59 -126.5v-195q0 -82 -59 -127t-140 -46q-82 1 -141.5 46
t-59.5 127v195z" />
    <glyph glyph-name="ocircumflex" unicode="&#xf4;" horiz-adv-x="503" 
d="M246 451q47 0 83 -24t36 -69v-195q0 -45 -36 -69.5t-83 -24.5q-48 0 -84.5 24.5t-36.5 69.5v195q0 45 36 69t85 24zM45 358v-195q0 -82 59.5 -127t141.5 -46q81 1 140 46t59 127v195q0 81 -59 126.5t-140 46.5q-82 -1 -141.5 -46.5t-59.5 -126.5zM101 542l110 120h66
l109 -120h-84l-60 61q-10 -12 -30 -33t-26 -28h-85z" />
    <glyph glyph-name="otilde" unicode="&#xf5;" horiz-adv-x="503" 
d="M246 451q47 0 83 -24t36 -69v-195q0 -45 -36 -69.5t-83 -24.5q-48 0 -84.5 24.5t-36.5 69.5v195q0 45 36 69t85 24zM45 358v-195q0 -82 59.5 -127t141.5 -46q81 1 140 46t59 127v195q0 81 -59 126.5t-140 46.5q-82 -1 -141.5 -46.5t-59.5 -126.5zM175 551l-48 18
q7 35 28 54t50 19q12 0 37.5 -11.5t38.5 -11.5t24 23l50 -17q-12 -69 -73 -69q-16 0 -42.5 11.5t-39.5 11.5q-17 0 -25 -28z" />
    <glyph glyph-name="odieresis" unicode="&#xf6;" horiz-adv-x="503" 
d="M246 451q47 0 83 -24t36 -69v-195q0 -45 -36 -69.5t-83 -24.5q-48 0 -84.5 24.5t-36.5 69.5v195q0 45 36 69t85 24zM45 358v-195q0 -82 59.5 -127t141.5 -46q81 1 140 46t59 127v195q0 81 -59 126.5t-140 46.5q-82 -1 -141.5 -46.5t-59.5 -126.5zM275 596q0 20 13.5 33.5
t33.5 13.5q19 0 32.5 -14t13.5 -33t-13.5 -32.5t-32.5 -13.5q-20 0 -33.5 13t-13.5 33zM123 596q0 20 13.5 33.5t32.5 13.5t33 -13.5t14 -33.5q0 -19 -13.5 -32.5t-33.5 -13.5q-19 0 -32.5 13t-13.5 33z" />
    <glyph glyph-name="divide" unicode="&#xf7;" horiz-adv-x="528" 
d="M37 286v83h438v-83h-438zM194 479q0 25 18 43t44 18t44 -18t18 -43t-18 -43.5t-44 -18.5t-44 18.5t-18 43.5zM199 176q0 26 18 43t44 18q26 0 44 -18t18 -43q0 -26 -18 -44t-44 -18t-44 18t-18 44z" />
    <glyph glyph-name="oslash" unicode="&#xf8;" horiz-adv-x="503" 
d="M45 163v195q0 81 59.5 126.5t141.5 46.5q32 -1 63 -9l30 73l72 -27l-33 -77q67 -45 67 -133v-195q0 -82 -59 -127t-140 -46q-41 2 -69 9l-28 -66l-66 27l29 69q-67 47 -67 134zM246 69q47 0 83 24.5t36 69.5v195q0 32 -19 54l-73 -178.5l-66 -160.5q17 -4 39 -4zM246 451
q-49 0 -85 -24t-36 -69v-195q0 -31 18 -54l137 339q-16 3 -34 3z" />
    <glyph glyph-name="ugrave" unicode="&#xf9;" horiz-adv-x="517" 
d="M452 29v490h-80v-436q-50 -17 -122 -17q-47 1 -81.5 26.5t-34.5 68.5v358h-80v-356q0 -81 58 -126t138 -46q94 0 202 38zM222 666l84 -136h-77l-107 136h100z" />
    <glyph glyph-name="uacute" unicode="&#xfa;" horiz-adv-x="517" 
d="M452 519v-490q-108 -38 -202 -38q-80 1 -138 46t-58 126v356h80v-358q0 -43 34.5 -68.5t81.5 -26.5q72 0 122 17v436h80zM198 533l83 133h98l-105 -133h-76z" />
    <glyph glyph-name="ucircumflex" unicode="&#xfb;" horiz-adv-x="517" 
d="M452 29v490h-80v-436q-50 -17 -122 -17q-47 1 -81.5 26.5t-34.5 68.5v358h-80v-356q0 -81 58 -126t138 -46q94 0 202 38zM112 549l110 121h66l110 -121h-85l-59 61l-57 -61h-85z" />
    <glyph glyph-name="udieresis" unicode="&#xfc;" horiz-adv-x="517" 
d="M452 29v490h-80v-436q-50 -17 -122 -17q-47 1 -81.5 26.5t-34.5 68.5v358h-80v-356q0 -81 58 -126t138 -46q94 0 202 38zM283 609q0 20 13 33.5t33 13.5q19 0 32.5 -13.5t13.5 -33.5q0 -19 -13.5 -32.5t-32.5 -13.5q-20 0 -33 13t-13 33zM132 609q0 20 13.5 33.5
t32.5 13.5t32.5 -14t13.5 -33t-13.5 -32.5t-32.5 -13.5q-20 0 -33 13.5t-13 32.5z" />
    <glyph glyph-name="yacute" unicode="&#xfd;" horiz-adv-x="519" 
d="M66 -101l55 50q20 -25 55 -38.5t72 -13.5q52 0 90 25t38 72v30q-34 -30 -124 -32q-82 -1 -143.5 47.5t-61.5 130.5v348h82v-350q-1 -44 35 -68.5t86 -25.5q62 0 126 25v419h80v-524q0 -85 -59 -130t-143 -45q-52 0 -103 21t-85 59zM191 532l83 133h98l-105 -133h-76z" />
    <glyph glyph-name="thorn" unicode="&#xfe;" horiz-adv-x="521" 
d="M59 -186v883h80v-193q63 13 123 13q81 -1 139 -45.5t58 -126.5v-182q0 -80 -59.5 -127t-140.5 -46q-61 1 -120 23v-199h-80zM139 425v-332q58 -23 122 -23q49 1 84 25t34 68v184q1 43 -33.5 66.5t-83.5 23.5q-80 0 -123 -12zM139 84l-9 13l9 -4v-9z" />
    <glyph glyph-name="ydieresis" unicode="&#xff;" horiz-adv-x="519" 
d="M114 -57l19 -1q36 -45 115 -45q52 0 90 25t38 72v20q-44 -20 -124 -22q-82 -1 -143.5 47.5t-61.5 130.5v348h82v-350q-1 -44 35 -68.5t86 -25.5q62 0 126 25v419h80v-524q0 -85 -59 -130t-143 -45q-52 0 -103 21t-85 59zM283 601q0 20 13.5 34t32.5 14q20 0 34 -14
t14 -34t-13.5 -33t-33.5 -13q-47 0 -47 46zM134 601q0 20 13.5 34t33.5 14t33.5 -14t13.5 -34t-13.5 -33t-33.5 -13t-33.5 13.5t-13.5 32.5z" />
    <glyph glyph-name="dotlessi" unicode="&#x131;" horiz-adv-x="221" 
d="M64 0v507h84v-507h-84z" />
    <glyph glyph-name="Lslash" unicode="&#x141;" horiz-adv-x="497" 
d="M73 0v207l-24 -20l-46 62l70 61v398h85v-322l84 71l41 -67l-125 -106v-199h323v-85h-408z" />
    <glyph glyph-name="lslash" unicode="&#x142;" horiz-adv-x="256" 
d="M246 76v-80q-84 0 -130 44.5t-46 124.5v144l-43 -30l-33 65l76 54v307h79v-252l40 29l34 -62l-74 -53v-202q0 -89 97 -89z" />
    <glyph glyph-name="OE" unicode="&#x152;" horiz-adv-x="959" 
d="M907 707v-84h-370v-229h340v-83h-340v-228h370v-84h-453v33q-29 -46 -125 -44q-113 2 -194.5 60.5t-81.5 162.5v284q0 105 83 163.5t197 59.5q34 0 70.5 -11.5t50.5 -29.5v30h453zM334 72q68 0 120 24v517q-51 23 -120 21q-82 0 -140 -35.5t-58 -103.5v-284
q0 -66 58.5 -102.5t139.5 -36.5z" />
    <glyph glyph-name="oe" unicode="&#x153;" horiz-adv-x="831" 
d="M685 357q0 44 -35.5 68t-83.5 24t-84 -24t-36 -70v-63h239v65zM248 447q-48 0 -83.5 -23.5t-35.5 -68.5v-190q0 -45 35.5 -68.5t83.5 -23.5q47 0 82.5 24t35.5 68v191q0 44 -35.5 67.5t-82.5 23.5zM50 355q0 81 58.5 126.5t139.5 45.5q51 0 94.5 -22.5t63.5 -66.5
q43 88 160 90q80 -1 139.5 -46t59.5 -126v-132h-319v-59q0 -45 36 -69t84 -24q38 0 70.5 18t47.5 52l72 -35q-26 -55 -78 -84.5t-112 -30.5q-111 0 -160 73q-46 -70 -158 -72q-81 1 -139.5 45.5t-58.5 126.5v190z" />
    <glyph glyph-name="Scaron" unicode="&#x160;" horiz-adv-x="595" 
d="M128 528q-2 -25 7.5 -43.5t23 -30t41 -21t46 -14t55.5 -11.5q40 -8 62.5 -13.5t57.5 -17t55 -26.5t40 -38t28 -56t6 -75q-5 -92 -80 -143t-177 -51q-85 0 -158 39.5t-105 112.5l77 35q22 -49 74.5 -76.5t113.5 -27.5q68 0 117.5 30t53.5 85q2 25 -3 44.5t-19.5 33.5
t-28.5 23.5t-40.5 18t-43.5 12.5t-50 11q-41 9 -69.5 17t-62.5 23.5t-54.5 36t-35 52.5t-14.5 73q5 89 78 139.5t171 50.5q83 0 155.5 -38.5t103.5 -109.5l-76 -34q-21 48 -72.5 74.5t-110.5 26.5q-66 0 -114 -29.5t-52 -82.5zM461 883l-130 -136h-79l-130 136h101l69 -69
l67 69h102z" />
    <glyph glyph-name="scaron" unicode="&#x161;" horiz-adv-x="418" 
d="M68 151l-60 -37q37 -59 92 -90.5t116 -29.5q73 2 124 40t51 110q-1 125 -167 156q-23 4 -38 8t-36 12.5t-32 22t-11 32.5q0 39 33 55.5t76 16.5q60 0 104 -45l52 61q-63 62 -156 62q-74 0 -131 -37.5t-57 -112.5q0 -40 15.5 -68t45 -44.5t56 -24.5t65.5 -15h-1
q30 -6 49 -12t36.5 -23.5t17.5 -43.5q1 -37 -27.5 -54.5t-68.5 -18.5q-41 -2 -81.5 20t-66.5 60zM357 661l-111 -115h-68l-111 115h86l60 -57l56 57h88z" />
    <glyph glyph-name="Ydieresis" unicode="&#x178;" horiz-adv-x="530" 
d="M113 780q0 22 15.5 37.5t37.5 15.5t37 -15.5t15 -37.5t-15 -37.5t-37 -15.5t-37.5 15.5t-15.5 37.5zM307 780q0 22 15.5 37.5t37.5 15.5t37.5 -15.5t15.5 -37.5t-15.5 -37.5t-37.5 -15.5t-37.5 15.5t-15.5 37.5zM551 708l-247 -432v-276h-84v276l-117 206l-129 226h97
l192 -343l90 162l100 181h98z" />
    <glyph glyph-name="Zcaron" unicode="&#x17d;" horiz-adv-x="563" 
d="M29 624h395l-414 -565l24 -59h500v84h-402l414 566l-27 58h-490v-84zM454 866l-128 -130h-78l-128 130h97l71 -69l68 69h98z" />
    <glyph glyph-name="zcaron" unicode="&#x17e;" horiz-adv-x="438" 
d="M24 437l281 4l-303 -390l43 -51h368v81q-46 0 -147 -2t-149 -2l301 389l-42 52h-352v-81zM364 659l-110 -114h-66l-110 114h85l58 -56l56 56h87z" />
    <glyph glyph-name="florin" unicode="&#x192;" horiz-adv-x="507" 
d="M391 424v-77h-113l-66 -356q-24 -128 -149 -128q-52 0 -93 34l44 67q27 -23 53 -23q29 0 44.5 23t24.5 71v1l58 311h-100v77h113q22 112 26 135q12 64 47 107.5t102 43.5q49 0 103 -39l-45 -65q-37 26 -58 26q-51 0 -66 -75v1q-4 -24 -12.5 -67t-12.5 -67h100z" />
    <glyph glyph-name="circumflex" unicode="&#x2c6;" horiz-adv-x="262" 
d="M-40 559l127 139h76l127 -139h-98l-69 71q-10 -12 -32.5 -35.5t-32.5 -35.5h-98z" />
    <glyph glyph-name="caron" unicode="&#x2c7;" horiz-adv-x="257" 
d="M289 697l-128 -133h-78l-128 133h99l69 -66l65 66h101z" />
    <glyph glyph-name="uni02C9" unicode="&#x2c9;" 
d="M255 675v-77h-277v77h277z" />
    <glyph glyph-name="breve" unicode="&#x2d8;" 
d="M220 694l13 -15q-6 -52 -43.5 -80.5t-85.5 -28.5t-85.5 32.5t-43.5 91.5h73q6 -24 22 -37.5t36 -13.5q19 0 35 13.5t20 37.5h59z" />
    <glyph glyph-name="dotaccent" unicode="&#x2d9;" 
d="M58 632q0 26 18 44t44 18t44 -18t18 -44t-18 -44t-44 -18t-44 18t-18 44z" />
    <glyph glyph-name="ring" unicode="&#x2da;" 
d="M15 629q0 42 30 72.5t73 30.5q42 0 71 -31.5t29 -72.5q0 -40 -29.5 -71t-70.5 -31q-43 0 -73 30.5t-30 72.5zM150 629q0 14 -9.5 24.5t-23.5 10.5t-23.5 -10.5t-9.5 -25.5q0 -14 9.5 -24t23.5 -10t23.5 10.5t9.5 24.5z" />
    <glyph glyph-name="ogonek" unicode="&#x2db;" 
d="M159 -67l37 -68q-47 -42 -97 -42q-44 0 -72 24.5t-28 66.5q0 40 29 70t67 43h82q-73 -55 -87 -81q-7 -11 -7 -20q0 -27 25 -27q24 0 51 34z" />
    <glyph glyph-name="tilde" unicode="&#x2dc;" horiz-adv-x="271" 
d="M54 590l-55 20q8 40 32.5 62t56.5 22q14 0 43 -13.5t44 -13.5t28 27l57 -20q-15 -79 -84 -79q-18 0 -49 13.5t-45 13.5q-18 0 -28 -32z" />
    <glyph glyph-name="hungarumlaut" unicode="&#x2dd;" horiz-adv-x="273" 
d="M7 538l66 160h108l-99 -160h-75zM146 538l65 160h108l-98 -160h-75z" />
    <glyph glyph-name="uni03A9" unicode="&#x3a9;" horiz-adv-x="752" 
d="M31 0v79h140q-128 121 -128 298q0 152 97.5 245.5t241.5 93.5t236 -97t92 -238q0 -93 -35 -171t-90 -131h137v-79h-285v57q84 47 136.5 132.5t52.5 191.5q0 99 -68 178t-178 79t-181 -74.5t-71 -188.5q0 -97 53 -179.5t139 -138.5v-57h-289z" />
    <glyph glyph-name="uni03BC" unicode="&#x3bc;" horiz-adv-x="502" 
d="M450 512l2 -512h-81q0 10 0.5 19t0.5 13v7.5t-2 6.5q-48 -57 -142 -57q-57 0 -98 33v-238h-83v728h84v-318q0 -128 97 -128q60 0 99 43t39 123v280h84z" />
    <glyph glyph-name="pi" unicode="&#x3c0;" horiz-adv-x="548" 
d="M489 77l1 -79q-75 4 -104.5 41t-29.5 106v303h-171v-448h-79v448q-50 -1 -96 -17l-17 61q52 32 139 32h386l-8 -76h-73v-297q0 -41 11 -58t41 -16z" />
    <glyph glyph-name="endash" unicode="&#x2013;" horiz-adv-x="529" 
d="M28 257v81h467v-81h-467z" />
    <glyph glyph-name="emdash" unicode="&#x2014;" horiz-adv-x="951" 
d="M35 257v81h877v-81h-877z" />
    <glyph glyph-name="quoteleft" unicode="&#x2018;" horiz-adv-x="219" 
d="M195 698l-69 -243h-96l81 243h84z" />
    <glyph glyph-name="quoteright" unicode="&#x2019;" horiz-adv-x="228" 
d="M29 455l68 243h97l-82 -243h-83z" />
    <glyph glyph-name="quotesinglbase" unicode="&#x201a;" horiz-adv-x="244" 
d="M30 -131l67 229h98l-83 -229h-82z" />
    <glyph glyph-name="quotedblleft" unicode="&#x201c;" horiz-adv-x="406" 
d="M205 698l-67 -243h-97l82 243h82zM365 698l-67 -243h-97l82 243h82z" />
    <glyph glyph-name="quotedblright" unicode="&#x201d;" horiz-adv-x="433" 
d="M211 455l67 243h97l-81 -243h-83zM56 455l67 243h97l-82 -243h-82z" />
    <glyph glyph-name="quotedblbase" unicode="&#x201e;" horiz-adv-x="471" 
d="M222 -131l68 225h97l-82 -225h-83zM67 -131l67 225h98l-83 -225h-82z" />
    <glyph glyph-name="dagger" unicode="&#x2020;" horiz-adv-x="507" 
d="M205 -120v557h-182v77h182v184h83v-184h182v-77h-182v-557h-83z" />
    <glyph glyph-name="daggerdbl" unicode="&#x2021;" horiz-adv-x="507" 
d="M205 -120v186h-182v75h182v296h-182v76h182v185h83v-185h182v-76h-182v-296h182v-75h-182v-186h-83z" />
    <glyph glyph-name="bullet" unicode="&#x2022;" horiz-adv-x="428" 
d="M53 349q0 63 44 107t107 44q62 0 106 -44t44 -107q0 -62 -44 -106.5t-106 -44.5q-63 0 -107 44.5t-44 106.5z" />
    <glyph glyph-name="ellipsis" unicode="&#x2026;" horiz-adv-x="702" 
d="M79 53q0 25 17 42t42 17t42 -17t17 -42t-17 -42t-42 -17t-42 17t-17 42zM277 53q0 25 17 42t42 17t42 -17t17 -42t-17 -42t-42 -17t-42 17t-17 42zM475 53q0 25 16.5 42t41.5 17t42 -17t17 -42t-17 -42t-42 -17t-41.5 17t-16.5 42z" />
    <glyph glyph-name="perthousand" unicode="&#x2030;" horiz-adv-x="1107" 
d="M329 508q0 -89 -42.5 -141.5t-110.5 -52.5q-74 0 -114 50.5t-40 145.5q0 87 43 139.5t111 52.5q72 0 112.5 -51t40.5 -143zM734 190q0 -89 -43 -141t-110 -52q-74 0 -114 50t-40 145q0 88 43 140t111 52q72 0 112.5 -51t40.5 -143zM652 190q0 115 -73 115q-70 0 -70 -113
q0 -60 17 -87t55 -27q71 0 71 112zM650 700l-487 -771l-69 43l488 771zM248 508q0 114 -73 114q-71 0 -71 -112q0 -60 17.5 -87t54.5 -27q72 0 72 112zM1077 190q0 -89 -42.5 -141t-109.5 -52q-74 0 -114 50t-40 145q0 88 42.5 140t111.5 52q71 0 111.5 -51t40.5 -143z
M996 190q0 115 -73 115q-71 0 -71 -113q0 -60 17.5 -87t55.5 -27q71 0 71 112z" />
    <glyph glyph-name="guilsinglleft" unicode="&#x2039;" horiz-adv-x="259" 
d="M162 83l-142 210l142 211l69 -42l-116 -169l50 -72l66 -97z" />
    <glyph glyph-name="guilsinglright" unicode="&#x203a;" horiz-adv-x="260" 
d="M91 504l141 -211l-141 -210l-70 40l116 170l-50 72l-66 97z" />
    <glyph glyph-name="fraction" unicode="&#x2044;" horiz-adv-x="168" 
d="M-174 3l446 732l66 -40l-447 -732z" />
    <glyph glyph-name="Euro" unicode="&#x20ac;" horiz-adv-x="582" 
d="M75 489q0 103 72.5 161.5t171.5 58.5q73 0 136.5 -37t96.5 -105l-75 -38q-23 47 -66.5 71.5t-91.5 24.5q-66 0 -114.5 -36.5t-48.5 -99.5v-50h260l-14 -69h-246v-43h262l-14 -68h-248v-50q0 -64 47.5 -100t113.5 -36q50 0 93.5 24.5t66.5 70.5l75 -36q-33 -69 -97 -105.5
t-138 -36.5q-99 0 -170.5 57.5t-71.5 161.5v50h-67l15 68h52v43h-63l14 69h49v50z" />
    <glyph glyph-name="afii61289" unicode="&#x2113;" horiz-adv-x="431" 
d="M350 170l59 -47q-67 -130 -178 -130q-76 0 -114.5 49.5t-43.5 131.5l-44 -35l-30 57q12 11 74 73v258q0 127 42 182.5t103 55.5q58 0 89 -45.5t31 -117.5q0 -172 -187 -364v-22q1 -145 89 -145q32 0 62 28t48 71zM151 532v-186q111 140 111 254q0 87 -47 87
q-26 0 -45 -36.5t-19 -118.5z" />
    <glyph glyph-name="trademark" unicode="&#x2122;" horiz-adv-x="829" 
d="M449 546l2 -235h-76v396h79l112 -244l54.5 118.5l57.5 125.5h79v-396h-76l3 240l-89 -196h-59zM214 634v-323h-76v323h-123v73h322v-73h-123z" />
    <glyph glyph-name="Omega" unicode="&#x2126;" horiz-adv-x="752" 
d="M31 0v79h140q-128 121 -128 298q0 152 97.5 245.5t241.5 93.5t236 -97t92 -238q0 -93 -35 -171t-90 -131h137v-79h-285v57q84 47 136.5 132.5t52.5 191.5q0 99 -68 178t-178 79t-181 -74.5t-71 -188.5q0 -97 53 -179.5t139 -138.5v-57h-289z" />
    <glyph glyph-name="estimated" unicode="&#x212e;" horiz-adv-x="883" 
d="M828 326h-629v-180q0 -4 4 -12q103 -99 227 -99q140 0 242 115h92q-63 -74 -151.5 -117t-183.5 -43q-165 0 -282 105t-117 254t117 255t282 106q166 0 282.5 -106t116.5 -255v-23zM199 550v-179h461v183q0 8 -5 13q-98 95 -225 95q-62 0 -121 -26.5t-104 -70.5
q-6 -6 -6 -15zM199 364q-3 6 -7 7h7v-7zM667 371q-7 -1 -7 -6v6h7z" />
    <glyph glyph-name="partialdiff" unicode="&#x2202;" horiz-adv-x="492" 
d="M84 616l-33 67q72 58 162 58q97 0 165.5 -90.5t68.5 -265.5q0 -177 -62.5 -284.5t-179.5 -107.5q-86 0 -133.5 64t-47.5 156q0 110 61 178.5t143 68.5q80 0 139 -61q0 113 -44.5 189.5t-114.5 76.5q-63 0 -124 -49zM206 71h1q59 0 103 67t48 157q-11 33 -47 61t-80 28
q-51 0 -88 -50t-37 -119q0 -65 27.5 -104.5t72.5 -39.5z" />
    <glyph glyph-name="Delta" unicode="&#x2206;" horiz-adv-x="605" 
d="M24 0v56l231 658h82l230 -657v-57h-543zM121 80h344l-171 499zM305 609l-11 -30q-3 7 -10 31l10 -9z" />
    <glyph glyph-name="product" unicode="&#x220f;" horiz-adv-x="652" 
d="M616 620h-99v-686h-81v686h-238v-686h-81v686h-97v79h596v-79z" />
    <glyph glyph-name="summation" unicode="&#x2211;" horiz-adv-x="521" 
d="M493 -83h-479v56l251 332l-239 334v58h452v-77h-339l221 -312l-237 -316h370v-75z" />
    <glyph glyph-name="minus" unicode="&#x2212;" horiz-adv-x="601" 
d="M39 265v78h510v-78h-510z" />
    <glyph glyph-name="uni2215" unicode="&#x2215;" horiz-adv-x="168" 
d="M-174 3l446 732l66 -40l-447 -732z" />
    <glyph glyph-name="uni2219" unicode="&#x2219;" horiz-adv-x="260" 
d="M68 315q0 25 17 42t42 17t41.5 -17t16.5 -42t-16.5 -42t-41.5 -17t-42 17t-17 42z" />
    <glyph glyph-name="radical" unicode="&#x221a;" horiz-adv-x="539" 
d="M532 821l-204 -967h-72l-141 437q-6 -2 -31 -11.5t-35 -12.5l-27 72l144 55l117 -381l165 808h84z" />
    <glyph glyph-name="infinity" unicode="&#x221e;" horiz-adv-x="733" 
d="M678 291v-1q0 -69 -46 -113t-108 -44q-42 0 -79 23t-85 74q-43 -47 -81 -72t-88 -25q-63 0 -107 44.5t-44 109.5q0 69 44.5 114t112.5 45q47 0 86 -26t80 -73q29 32 49 50t52.5 33.5t66.5 15.5q66 -1 106.5 -44t40.5 -111zM196 209h1q44 0 113 76l3 3q-22 26 -37 40.5
t-38.5 28t-47.5 13.5q-33 0 -52 -24t-19 -59q0 -33 21.5 -55.5t55.5 -22.5zM526 370q-42 0 -110 -73l-6 -7q41 -44 66 -62.5t51 -18.5q33 0 53 23.5t20 54.5q0 39 -20.5 61t-53.5 22z" />
    <glyph glyph-name="integral" unicode="&#x222b;" horiz-adv-x="326" 
d="M317 821l-18 -72q-34 23 -56 23q-23 0 -37 -23.5t-13 -63.5l5 -251q7 -369 7 -434q0 -73 -38 -111t-94 -38q-32 0 -76 19l19 67q32 -13 49 -13q28 0 44.5 21t16.5 56q0 78 -6 350q-6 268 -6 340q0 74 36.5 115t88.5 41q37 0 78 -26z" />
    <glyph glyph-name="approxequal" unicode="&#x2248;" horiz-adv-x="537" 
d="M419 413l53 -47q-53 -79 -120 -79q-42 0 -113 41q-48 28 -74 28q-30 0 -68 -52l-56 45q57 82 130 82q43 0 96 -33l-1 1l13 -7l11 -7l-2 1q2 -2 6 -3q37 -21 62 -21q30 0 63 51zM416 271l57 -42q-53 -79 -121 -79q-19 0 -38.5 6t-32 12t-43.5 23q-50 28 -73 28
q-32 0 -67 -52l-57 46q54 82 130 82q35 0 93 -30l6 -4l-4 3l13 -8l5 -2q45 -27 72 -27t60 44z" />
    <glyph glyph-name="notequal" unicode="&#x2260;" horiz-adv-x="528" 
d="M385 488l-37 -80h132v-77h-165l-18.5 -42.5l-22.5 -50.5h206v-77h-240q-3 -8 -10 -23l-11 -23l-15 -33.5l-15 -33.5l-66 34l37 79h-125v77h159l18.5 44t21.5 49h-199v77h235l19 45l31 65z" />
    <glyph glyph-name="lessequal" unicode="&#x2264;" horiz-adv-x="467" 
d="M414 43h-386v77h386v-77zM401 619v-91l-259 -145l259 -141v-90l-360 203v58z" />
    <glyph glyph-name="greaterequal" unicode="&#x2265;" horiz-adv-x="471" 
d="M425 43h-386v77h386v-77zM52 525v91l360 -206v-58l-360 -203v90l259 141z" />
    <glyph glyph-name="lozenge" unicode="&#x25ca;" horiz-adv-x="546" 
d="M511 351l-214 -381h-72l-210 380l214 381h71zM415 350l-149 262q-2 4 -5 8l-6 -11l-144 -257l150 -268l2 -4q1 3 5 9zM250 45l5.5 16t7.5 19l11 -35q0 -1 0.5 -2t0.5 -2z" />
    </font>
</defs>
</svg>
